<?xml version="1.0" standalone="no"?>
<!DOCTYPE svg PUBLIC "-//W3C//DTD SVG 1.1//EN" "http://www.w3.org/Graphics/SVG/1.1/DTD/svg11.dtd" >
<svg xmlns="http://www.w3.org/2000/svg" xmlns:xlink="http://www.w3.org/1999/xlink" version="1.1">
<metadata>
Created by FontForge 20170731 at Sun Dec 15 03:56:23 2013
 By Aleksey,,,
Copyright (c) 2013 by Matthieu Cortat. All rights reserved.
</metadata>
<defs>
<font id="LouizeDisplay-Bold" horiz-adv-x="210" >
  <font-face 
    font-family="Louize Display"
    font-weight="700"
    font-stretch="normal"
    units-per-em="1000"
    panose-1="2 10 8 2 5 0 0 2 0 3"
    ascent="734"
    descent="-266"
    x-height="433"
    cap-height="703"
    bbox="-174 -276 1986 1120"
    underline-thickness="50"
    underline-position="-200"
    unicode-range="U+000B-FB06"
  />
<missing-glyph horiz-adv-x="300" 
 />
    <glyph glyph-name="ff" unicode="ff" horiz-adv-x="502" 
d="M295 182v115q0 44 -12.5 59.5t-49.5 15.5h-59v-190q0 -71 8 -111.5t33 -71.5h-10q-29 0 -49 1q-40 2 -42 2q-7 0 -37.5 -1.5t-43.5 -1.5h-11q16 24 24 56q8 29 10 55q1 16 1 72v147q0 30 -7.5 46.5t-30.5 33.5l7 7q19 19 25 43l7 23q2 6 5 31t5 31q18 96 60.5 147.5
t102.5 51.5q46 0 76 -11q6 -26 6 -60q0 -57 -31 -100q-32 58 -49 77.5t-35 19.5q-29 0 -29 -47q0 -3 2 -65q3 -47 3 -88v-35h121q6 83 11 110q21 97 73 148t130 51q70 0 112 -20q10 -30 10 -68q0 -51 -37 -112q-34 75 -59 108t-49 33q-74 0 -74 -170v-80q37 1 116 4l-30 -66
h-86v-190q0 -71 8 -111.5t33 -71.5h-10q-29 0 -49 1q-40 2 -42 2q-7 0 -37.5 -1.5t-43.5 -1.5h-11q16 24 24 56q8 29 10 55q1 16 1 72z" />
    <glyph glyph-name="fi" unicode="fi" horiz-adv-x="466" 
d="M412 270v-88q0 -13 2 -93q2 -53 24 -90h-13q-12 0 -39 1.5t-34 1.5t-37.5 -1.5t-42.5 -1.5h-12q32 39 33 90q2 80 2 93v37q0 51 -3 94q-2 32 -17.5 45.5t-52.5 13.5h-48v-190q0 -40 4 -93q5 -47 37 -90h-10q-29 0 -49 1q-40 2 -42 2q-7 0 -37.5 -1.5t-43.5 -1.5h-11
q32 45 33 90q2 80 2 93v147q0 30 -7.5 46.5t-30.5 33.5l7 7q19 19 28 53q2 8 7 37.5t7 37.5q21 95 75 147t133 52q82 0 134 -21q7 -25 7 -64q0 -73 -53 -123q-40 89 -59 116q-23 33 -52 33q-79 0 -79 -170v-80h115q63 0 128 17q-5 -117 -5 -181z" />
    <glyph glyph-name="fl" unicode="fl" horiz-adv-x="461" 
d="M295 182v368q0 27 -3 60q-8 74 -51 74q-31 0 -49 -36.5t-18 -108.5v-105l96 4l-30 -66h-66v-190q0 -40 4 -93q5 -47 37 -90h-10q-29 0 -49 1q-40 2 -42 2q-7 0 -37.5 -1.5t-43.5 -1.5h-11q32 45 33 90q2 80 2 93v147q0 30 -7.5 46.5t-30.5 33.5l7 7q19 19 28 53
q2 8 7 37.5t7 37.5q21 97 73 148t130 51q64 0 96 -20q24 9 50 21q-5 -82 -5 -181v-381q0 -13 2 -93q2 -53 24 -90h-13q-12 0 -39 1.5t-34 1.5t-37.5 -1.5t-42.5 -1.5h-12q32 39 33 90q2 80 2 93z" />
    <glyph glyph-name="ffi" unicode="ffi" horiz-adv-x="704" 
d="M295 182v115q0 44 -12.5 59.5t-49.5 15.5h-59v-190q0 -71 8 -111.5t33 -71.5h-10q-29 0 -49 1q-40 2 -42 2q-7 0 -37.5 -1.5t-43.5 -1.5h-11q16 24 24 56q8 29 10 55q1 16 1 72v147q0 30 -7.5 46.5t-30.5 33.5l7 7q19 19 25 43l7 23q2 6 5 31t5 31q18 96 60.5 147.5
t102.5 51.5q46 0 76 -11q6 -26 6 -60q0 -57 -31 -100q-32 58 -49 77.5t-35 19.5q-29 0 -29 -47q0 -3 2 -65q3 -47 3 -88v-35h121q6 83 11 110q22 96 75.5 147.5t132.5 51.5q82 0 134 -21q7 -25 7 -64q0 -73 -53 -123q-40 89 -59 116q-23 33 -52 33q-79 0 -79 -170v-80h115
q63 0 128 17q-5 -117 -5 -181v-88q0 -13 2 -93q2 -53 24 -90h-13q-12 0 -39 1.5t-34 1.5t-37.5 -1.5t-42.5 -1.5h-12q32 39 33 90q2 80 2 93v37q0 51 -3 94q-2 32 -17.5 45.5t-52.5 13.5h-48v-190q0 -40 4 -93q5 -47 37 -90h-10q-29 0 -49 1q-40 2 -42 2q-7 0 -37.5 -1.5
t-43.5 -1.5h-11q32 45 33 90q2 80 2 93z" />
    <glyph glyph-name="ffl" unicode="ffl" horiz-adv-x="700" 
d="M296 182l-1 115q0 44 -12.5 59.5t-49.5 15.5h-59v-190q0 -71 8 -111.5t33 -71.5h-10q-29 0 -49 1q-40 2 -42 2q-7 0 -37.5 -1.5t-43.5 -1.5h-11q16 24 24 56q8 29 10 55q1 16 1 72v147q0 30 -7.5 46.5t-30.5 33.5l7 7q19 19 25 43l7 23q2 6 5 31t5 31q18 96 60.5 147.5
t102.5 51.5q46 0 76 -11q6 -26 6 -60q0 -57 -31 -100q-32 58 -49 77.5t-35 19.5q-29 0 -29 -47q0 -3 2 -65q3 -47 3 -88v-35h121q6 83 11 110q48 199 204 199q64 0 96 -20q24 9 50 21q-5 -82 -5 -181v-381q0 -13 2 -93q1 -53 24 -90h-13q-12 0 -39 1.5t-34 1.5t-37.5 -1.5
t-42.5 -1.5h-12q31 39 33 90q2 80 2 93v368q0 27 -3 60q-8 74 -51 74q-31 0 -49 -36.5t-18 -108.5v-105l96 4l-30 -66h-66v-190q0 -40 4 -93q5 -47 37 -90h-10q-29 0 -49 1q-40 2 -42 2q-7 0 -37.5 -1.5t-43.5 -1.5h-11q31 45 33 90q2 80 2 93z" />
    <glyph glyph-name="longsl" unicode="&#x17f;i" horiz-adv-x="461" 
d="M295 182v368q0 27 -3 60q-8 74 -51 74q-31 0 -49 -36.5t-18 -108.5v-357q0 -40 4 -93q5 -47 37 -90h-10q-29 0 -49 1q-40 2 -42 2q-7 0 -37.5 -1.5t-43.5 -1.5h-11q32 45 33 90q2 80 2 93v147q0 30 -7.5 46.5t-30.5 33.5l7 7q19 19 28 53q2 8 7 37.5t7 37.5q21 97 73 148
t130 51q64 0 96 -20q24 9 50 21q-5 -82 -5 -181v-381q0 -13 2 -93q2 -53 24 -90h-13q-12 0 -39 1.5t-34 1.5t-37.5 -1.5t-42.5 -1.5h-12q32 39 33 90q2 80 2 93z" />
    <glyph glyph-name="flslash" unicode="f&#x142;" horiz-adv-x="501" 
d="M253 220l-26 46l78 45v239q0 27 -3 60q-8 74 -56 74q-32 0 -52 -37t-20 -108v-105l96 4l-30 -66h-66v-190q0 -40 4 -93q5 -47 37 -90h-10q-29 0 -49 1q-40 2 -42 2q-7 0 -37.5 -1.5t-43.5 -1.5h-11q32 45 33 90q2 80 2 93v147q0 30 -7.5 46.5t-30.5 33.5l7 7q19 19 28 53
q2 8 7 37.5t7 37.5q21 96 74.5 147.5t133.5 51.5q59 0 101 -20q24 9 50 21q-5 -82 -5 -181v-183l62 36l27 -46l-89 -52v-136q0 -13 2 -93q2 -53 24 -90h-13q-12 0 -39 1.5t-34 1.5t-37.5 -1.5t-42.5 -1.5h-12q32 39 33 90q2 80 2 93v68z" />
    <glyph glyph-name="fthorn" unicode="f&#xfe;" horiz-adv-x="741" 
d="M295 -81v631q0 27 -3 60q-8 74 -51 74q-31 0 -49 -36.5t-18 -108.5v-105l96 4l-30 -66h-66v-190q0 -40 4 -93q5 -47 37 -90h-10q-29 0 -49 1q-40 2 -42 2q-7 0 -37.5 -1.5t-43.5 -1.5h-11q32 45 33 90q2 80 2 93v147q0 30 -7.5 46.5t-30.5 33.5l7 7q19 19 28 53
q2 8 7 37.5t7 37.5q21 97 73 148t130 51q64 0 96 -20q24 9 50 21q-5 -82 -5 -181v-199q42 87 132 87q78 0 131 -62q54 -61 54 -165q0 -108 -61 -175q-62 -66 -149 -66q-63 0 -107 32v-96q0 -40 4 -93q5 -52 37 -90h-13q-7 0 -47 2q-19 1 -41 1q-7 0 -37.5 -1.5t-42.5 -1.5
h-12q32 39 33 90q2 80 2 93zM514 38q42 0 68.5 41t26.5 115q0 82 -30.5 128.5t-79.5 46.5q-40 0 -63.5 -30.5t-23.5 -84.5v-91q0 -62 27.5 -93.5t74.5 -31.5z" />
    <glyph glyph-name="fb" unicode="fb" horiz-adv-x="730" 
d="M295 24v526q0 27 -3 60q-8 74 -51 74q-31 0 -49 -36.5t-18 -108.5v-105l96 4l-30 -66h-66v-190q0 -40 4 -93q5 -47 37 -90h-10q-29 0 -49 1q-40 2 -42 2q-7 0 -37.5 -1.5t-43.5 -1.5h-11q32 45 33 90q2 80 2 93v147q0 30 -7.5 46.5t-30.5 33.5l7 7q19 19 28 53
q2 8 7 37.5t7 37.5q21 97 73 148t130 51q64 0 96 -20q24 9 50 21q-5 -82 -5 -181v-211q50 99 140 99q72 0 119 -62t47 -154q0 -113 -64 -183q-63 -70 -171 -70q-97 0 -188 42zM487 39q50 0 77.5 46t27.5 127q0 69 -26 110t-71 41q-83 0 -83 -129v-97q0 -98 75 -98z" />
    <glyph glyph-name="fh" unicode="fh" horiz-adv-x="730" 
d="M295 182v368q0 27 -3 60q-8 74 -51 74q-31 0 -49 -36.5t-18 -108.5v-105l96 4l-30 -66h-66v-190q0 -40 4 -93q5 -47 37 -90h-10q-29 0 -49 1q-40 2 -42 2q-7 0 -37.5 -1.5t-43.5 -1.5h-11q32 45 33 90q2 80 2 93v147q0 30 -7.5 46.5t-30.5 33.5l7 7q19 19 28 53
q2 8 7 37.5t7 37.5q21 97 73 148t130 51q64 0 96 -20q24 9 50 21q-5 -82 -5 -181v-201q27 46 57 67.5t73 21.5q74 0 112 -60q23 -38 23 -97v-112q0 -13 2 -93q2 -50 34 -90h-11q-13 0 -42 1.5t-36 1.5t-35.5 -1.5t-40.5 -1.5h-13q21 34 23 90q2 80 2 93v109q0 34 -17 53
t-48 19q-38 0 -60.5 -24t-22.5 -63v-94q0 -13 2 -93q2 -53 24 -90h-13q-12 0 -39 1.5t-34 1.5t-37.5 -1.5t-42.5 -1.5h-12q32 39 33 90q2 80 2 93z" />
    <glyph glyph-name="fj" unicode="fj" horiz-adv-x="449" 
d="M412 270v-137q0 -76 3 -142q-4 -98 -57 -169q-50 -69 -127 -86q33 58 49 111q15 49 15 122v250q0 51 -3 94q-2 32 -17.5 45.5t-52.5 13.5h-48v-190q0 -40 4 -93q5 -47 37 -90h-10q-29 0 -49 1q-40 2 -42 2q-7 0 -37.5 -1.5t-43.5 -1.5h-11q32 45 33 90q2 80 2 93v147
q0 30 -7.5 46.5t-30.5 33.5l7 7q19 19 28 53q2 8 7 37.5t7 37.5q21 95 75 147t133 52q82 0 134 -21q7 -25 7 -64q0 -73 -53 -123q-40 89 -59 116q-23 33 -52 33q-79 0 -79 -170v-80h115q63 0 128 17q-5 -117 -5 -181z" />
    <glyph glyph-name="fk" unicode="fk" horiz-adv-x="696" 
d="M295 182v368q0 27 -3 60q-8 74 -51 74q-31 0 -49 -36.5t-18 -108.5v-105l96 4l-30 -66h-66v-190q0 -40 4 -93q5 -47 37 -90h-10q-29 0 -49 1q-40 2 -42 2q-7 0 -37.5 -1.5t-43.5 -1.5h-11q32 45 33 90q2 80 2 93v147q0 30 -7.5 46.5t-30.5 33.5l7 7q19 19 28 53
q2 8 7 37.5t7 37.5q21 97 73 148t130 51q64 0 96 -20q24 9 50 21q-5 -82 -5 -181v-381q0 -13 2 -93q2 -53 24 -90h-13q-12 0 -39 1.5t-34 1.5t-37.5 -1.5t-42.5 -1.5h-12q32 39 33 90q2 80 2 93zM515 72l-94 166l49 48q34 34 45.5 53.5t11.5 39.5q0 16 -23 54h12
q8 0 35.5 -1.5t36.5 -1.5q22 0 41 1q38 2 43 2h13l-92 -94l-59 -59l118 -197q36 -60 56 -85q-20 -7 -37 -7q-109 0 -156 81z" />
    <glyph glyph-name="fagrave" unicode="f&#xe0;" horiz-adv-x="662" 
d="M500 170v29q-28 -11 -46 -20q-66 -35 -66 -79q0 -17 10.5 -27.5t28.5 -10.5q30 0 51.5 29.5t21.5 78.5zM500 253v25q0 40 -21 61q-21 22 -57 22q-63 0 -115 -40q0 57 40 92.5t106 35.5q85 0 128 -54q35 -44 35 -118v-79q0 -47 1 -68q2 -55 8 -77q7 -25 27 -58
q-18 -3 -34 -3q-95 0 -113 78q-38 -86 -124 -86q-47 0 -76 28t-29 71q0 67 68 108q48 30 156 62zM68 544q18 96 60.5 147.5t102.5 51.5q46 0 76 -11q6 -26 6 -60q0 -57 -31 -100q-32 58 -49 77.5t-35 19.5q-29 0 -29 -47q0 -3 2 -65q3 -47 3 -88v-35q37 1 116 4l-30 -66h-86
v-190q0 -40 4 -93q5 -47 37 -90h-10q-29 0 -49 1q-40 2 -42 2q-7 0 -37.5 -1.5t-43.5 -1.5h-11q32 45 33 90q2 80 2 93v147q0 30 -7.5 46.5t-30.5 33.5l7 7q19 19 25 43l7 23q2 6 5 31t5 31zM346 706l133 43l18 -268z" />
    <glyph glyph-name="facircumflex" unicode="f&#xe2;" horiz-adv-x="662" 
d="M68 544q18 96 60.5 147.5t102.5 51.5q46 0 76 -11q6 -26 6 -60q0 -57 -31 -100q-32 58 -49 77.5t-35 19.5q-29 0 -29 -47q0 -3 2 -65q3 -47 3 -88v-35q37 1 116 4l-30 -66h-86v-190q0 -40 4 -93q5 -47 37 -90h-10q-29 0 -49 1q-40 2 -42 2q-7 0 -37.5 -1.5t-43.5 -1.5
h-11q32 45 33 90q2 80 2 93v147q0 30 -7.5 46.5t-30.5 33.5l7 7q19 19 25 43l7 23q2 6 5 31t5 31zM500 170v29q-28 -11 -46 -20q-66 -35 -66 -79q0 -17 10.5 -27.5t28.5 -10.5q30 0 51.5 29.5t21.5 78.5zM500 253v25q0 40 -21 61q-21 22 -57 22q-63 0 -115 -40q0 57 40 92.5
t106 35.5q85 0 128 -54q35 -44 35 -118v-79q0 -47 1 -68q2 -55 8 -77q7 -25 27 -58q-18 -3 -34 -3q-95 0 -113 78q-38 -86 -124 -86q-47 0 -76 28t-29 71q0 67 68 108q48 30 156 62zM347 485l115 282l115 -282l-115 87z" />
    <glyph glyph-name="fatilde" unicode="f&#xe3;" horiz-adv-x="662" 
d="M500 170v29q-28 -11 -46 -20q-66 -35 -66 -79q0 -17 10.5 -27.5t28.5 -10.5q30 0 51.5 29.5t21.5 78.5zM500 253v25q0 40 -21 61q-21 22 -57 22q-63 0 -115 -40q0 57 40 92.5t106 35.5q85 0 128 -54q35 -44 35 -118v-79q0 -47 1 -68q2 -55 8 -77q7 -25 27 -58
q-18 -3 -34 -3q-95 0 -113 78q-38 -86 -124 -86q-47 0 -76 28t-29 71q0 67 68 108q48 30 156 62zM68 544q18 96 60.5 147.5t102.5 51.5q46 0 76 -11q6 -26 6 -60q0 -57 -31 -100q-32 58 -49 77.5t-35 19.5q-29 0 -29 -47q0 -3 2 -65q3 -47 3 -88v-35q37 1 116 4l-30 -66h-86
v-190q0 -40 4 -93q5 -47 37 -90h-10q-29 0 -49 1q-40 2 -42 2q-7 0 -37.5 -1.5t-43.5 -1.5h-11q32 45 33 90q2 80 2 93v147q0 30 -7.5 46.5t-30.5 33.5l7 7q19 19 25 43l7 23q2 6 5 31t5 31zM469 599q-44 23 -66 23q-39 0 -79 -29v8q0 50 29 80t70 30q31 0 66 -19
q44 -23 66 -23q39 0 79 29v-8q0 -50 -29 -80t-70 -30q-31 0 -66 19z" />
    <glyph glyph-name="faring" unicode="f&#xe5;" horiz-adv-x="662" 
d="M68 544q18 96 60.5 147.5t102.5 51.5q46 0 76 -11q6 -26 6 -60q0 -57 -31 -100q-32 58 -49 77.5t-35 19.5q-29 0 -29 -47q0 -3 2 -65q3 -47 3 -88v-35q37 1 116 4l-30 -66h-86v-190q0 -40 4 -93q5 -47 37 -90h-10q-29 0 -49 1q-40 2 -42 2q-7 0 -37.5 -1.5t-43.5 -1.5
h-11q32 45 33 90q2 80 2 93v147q0 30 -7.5 46.5t-30.5 33.5l7 7q19 19 25 43l7 23q2 6 5 31t5 31zM500 170v29q-28 -11 -46 -20q-66 -35 -66 -79q0 -17 10.5 -27.5t28.5 -10.5q30 0 51.5 29.5t21.5 78.5zM500 253v25q0 40 -21 61q-21 22 -57 22q-63 0 -115 -40q0 57 40 92.5
t106 35.5q85 0 128 -54q35 -44 35 -118v-79q0 -47 1 -68q2 -55 8 -77q7 -25 27 -58q-18 -3 -34 -3q-95 0 -113 78q-38 -86 -124 -86q-47 0 -76 28t-29 71q0 67 68 108q48 30 156 62zM338 643q0 51 36 88q37 37 88 37t88 -37t37 -88t-37 -88q-38 -36 -88 -36q-52 0 -88 36
t-36 88zM461 588q23 0 38.5 15.5t15.5 38.5t-15.5 39.5t-38.5 16.5q-22 0 -37 -16.5t-15 -39.5t15 -38.5t37 -15.5z" />
    <glyph glyph-name="fedieresis" unicode="f&#xeb;" horiz-adv-x="711" 
d="M68 544q18 96 60.5 147.5t102.5 51.5q46 0 76 -11q6 -26 6 -60q0 -57 -31 -100q-32 58 -49 77.5t-35 19.5q-29 0 -29 -47q0 -3 2 -65q3 -47 3 -88v-35q37 1 116 4l-30 -66h-86v-190q0 -40 4 -93q5 -47 37 -90h-10q-29 0 -49 1q-40 2 -42 2q-7 0 -37.5 -1.5t-43.5 -1.5
h-11q32 45 33 90q2 80 2 93v147q0 30 -7.5 46.5t-30.5 33.5l7 7q19 19 25 43l7 23q2 6 5 31t5 31zM278 208q0 105 65 175q66 69 161 69q85 0 137 -49t52 -126q0 -13 -2 -29h-297q-1 -4 -1 -14q0 -65 34.5 -105.5t91.5 -40.5q83 0 159 87q2 -16 2 -24q0 -69 -51 -119
q-51 -48 -125 -48q-98 0 -162 66q-64 65 -64 158zM400 300h171q-3 94 -75 94q-34 0 -60.5 -26t-35.5 -68zM498 651l-82 -82l-82 82l82 82zM669 651l-80 -82l-82 82l82 82z" />
    <glyph glyph-name="fiacute" unicode="f&#xed;" horiz-adv-x="466" 
d="M19 409l7 7q19 19 25 43q5 13 6 24q2 7 5.5 30.5t4.5 30.5q18 96 60.5 147.5t102.5 51.5q46 0 76 -11q6 -26 6 -60q0 -57 -31 -100q-32 58 -49 77.5t-35 19.5q-29 0 -29 -47q0 -18 3 -65t3 -88v-35h115q63 0 128 17q-5 -117 -5 -181v-88q0 -13 2 -93q2 -53 24 -90h-13
q-12 0 -39 1.5t-34 1.5t-37.5 -1.5t-42.5 -1.5h-12q32 39 33 90q2 80 2 93v37q0 51 -3 94q-2 32 -17.5 45.5t-52.5 13.5h-48v-190q0 -40 4 -93q5 -47 37 -90h-10q-29 0 -49 1q-40 2 -42 2q-7 0 -37.5 -1.5t-43.5 -1.5h-11q32 45 33 90q2 80 2 93v147q0 30 -7.5 46.5
t-30.5 33.5zM485 706l-151 -225l19 268z" />
    <glyph glyph-name="figrave" unicode="f&#xec;" horiz-adv-x="466" 
d="M389 728l12 -247l-94 134q-28 39 -40 50.5t-26 11.5q-67 0 -67 -153v-90h115q63 0 128 17q-5 -117 -5 -181v-88q0 -13 2 -93q2 -53 24 -90h-13q-12 0 -39 1.5t-34 1.5t-37.5 -1.5t-42.5 -1.5h-12q32 39 33 90q2 80 2 93v37q0 51 -3 94q-2 32 -17.5 45.5t-52.5 13.5h-48
v-190q0 -40 4 -93q5 -47 37 -90h-10q-29 0 -49 1q-40 2 -42 2q-7 0 -37.5 -1.5t-43.5 -1.5h-11q32 45 33 90q2 80 2 93v147q0 30 -7.5 46.5t-30.5 33.5l7 7q19 19 28 53q2 8 7 37.5t7 37.5q45 199 209 199q64 0 112 -15z" />
    <glyph glyph-name="ficircumflex" unicode="f&#xee;" horiz-adv-x="516" 
d="M68 544q18 96 60.5 147.5t102.5 51.5q46 0 76 -11q6 -26 6 -60q0 -57 -31 -100q-32 58 -49 77.5t-35 19.5q-29 0 -29 -47q0 -3 2 -65q3 -47 3 -88v-35q37 1 116 4l-30 -66h-86v-190q0 -40 4 -93q5 -47 37 -90h-10q-29 0 -49 1q-40 2 -42 2q-7 0 -37.5 -1.5t-43.5 -1.5
h-11q32 45 33 90q2 80 2 93v147q0 30 -7.5 46.5t-30.5 33.5l7 7q19 19 25 43l7 23q2 6 5 31t5 31zM462 263v-81q0 -13 2 -93q2 -53 24 -90h-13q-12 0 -39 1.5t-34 1.5t-37.5 -1.5t-42.5 -1.5h-12q32 39 33 90q2 80 2 93v37q0 57 -3 86q-3 28 -11 43t-28 32q93 33 164 64
q-5 -93 -5 -181zM292 485l115 282l115 -282l-115 87z" />
    <glyph glyph-name="fidieresis" unicode="f&#xef;" horiz-adv-x="510" 
d="M391 651l-82 -82l-77 82q-18 18 -34 18q-29 0 -29 -47q0 -3 2 -65q3 -47 3 -88v-35q37 1 116 4l-30 -66h-86v-190q0 -40 4 -93q5 -47 37 -90h-10q-29 0 -49 1q-40 2 -42 2q-7 0 -37.5 -1.5t-43.5 -1.5h-11q32 45 33 90q2 80 2 93v147q0 30 -7.5 46.5t-30.5 33.5l7 7
q19 19 25 43l7 23q2 6 5 31t5 31q37 199 174 199q36 0 67 -19q34 -20 82 -73zM456 263v-81q0 -13 2 -93q2 -53 24 -90h-13q-12 0 -39 1.5t-34 1.5t-37.5 -1.5t-42.5 -1.5h-12q32 39 33 90q2 80 2 93v37q0 57 -3 86q-3 28 -11 43t-28 32q93 33 164 64q-5 -93 -5 -181z
M562 651l-80 -82l-82 82l82 82z" />
    <glyph glyph-name="fodieresis" unicode="f&#xf6;" horiz-adv-x="769" 
d="M68 544q18 96 60.5 147.5t102.5 51.5q46 0 76 -11q6 -26 6 -60q0 -57 -31 -100q-32 58 -49 77.5t-35 19.5q-29 0 -29 -47q0 -3 2 -65q3 -47 3 -88v-35q37 1 116 4l-30 -66h-86v-190q0 -40 4 -93q5 -47 37 -90h-10q-29 0 -49 1q-40 2 -42 2q-7 0 -37.5 -1.5t-43.5 -1.5
h-11q32 45 33 90q2 80 2 93v147q0 30 -7.5 46.5t-30.5 33.5l7 7q19 19 25 43l7 23q2 6 5 31t5 31zM513 393q-50 0 -79.5 -44t-29.5 -124q0 -87 31.5 -135.5t86.5 -48.5q49 0 77.5 44.5t28.5 124.5q0 83 -34 132q-33 51 -81 51zM276 217q0 97 69 165q69 69 171 69
q106 0 173 -67q68 -68 68 -167q0 -98 -68 -166t-168 -68q-109 0 -177 67q-68 68 -68 167zM512 651l-82 -82l-82 82l82 82zM683 651l-80 -82l-82 82l82 82z" />
    <glyph glyph-name="fotilde" unicode="f&#xf5;" horiz-adv-x="769" 
d="M68 544q18 96 60.5 147.5t102.5 51.5q46 0 76 -11q6 -26 6 -60q0 -57 -31 -100q-32 58 -49 77.5t-35 19.5q-29 0 -29 -47q0 -3 2 -65q3 -47 3 -88v-35q37 1 116 4l-30 -66h-86v-190q0 -40 4 -93q5 -47 37 -90h-10q-29 0 -49 1q-40 2 -42 2q-7 0 -37.5 -1.5t-43.5 -1.5
h-11q32 45 33 90q2 80 2 93v147q0 30 -7.5 46.5t-30.5 33.5l7 7q19 19 25 43l7 23q2 6 5 31t5 31zM513 393q-50 0 -79.5 -44t-29.5 -124q0 -87 31.5 -135.5t86.5 -48.5q49 0 77.5 44.5t28.5 124.5q0 83 -34 132q-33 51 -81 51zM276 217q0 97 69 165q69 69 171 69
q106 0 173 -67q68 -68 68 -167q0 -98 -68 -166t-168 -68q-109 0 -177 67q-68 68 -68 167zM503 599q-44 23 -66 23q-39 0 -79 -29v8q0 50 29 80t70 30q31 0 66 -19q44 -23 66 -23q39 0 79 29v-8q0 -50 -29 -80t-70 -30q-31 0 -66 19z" />
    <glyph glyph-name="futilde" unicode="f&#x169;" horiz-adv-x="770" 
d="M68 544q18 96 60.5 147.5t102.5 51.5q46 0 76 -11q6 -26 6 -60q0 -57 -31 -100q-32 58 -49 77.5t-35 19.5q-29 0 -29 -47q0 -3 2 -65q3 -47 3 -88v-35q37 1 116 4l-30 -66h-86v-190q0 -40 4 -93q5 -47 37 -90h-10q-29 0 -49 1q-40 2 -42 2q-7 0 -37.5 -1.5t-43.5 -1.5
h-11q32 45 33 90q2 80 2 93v147q0 30 -7.5 46.5t-30.5 33.5l7 7q19 19 25 43l7 23q2 6 5 31t5 31zM714 257v-50q0 -57 3 -86q5 -47 39 -75l-153 -57l-3 87q-31 -50 -59.5 -72t-71.5 -22q-73 0 -110 60q-23 38 -23 97v100q0 63 -3 95q-3 44 -35 98q111 2 162 5
q-7 -111 -7 -180v-115q0 -72 63 -72q38 0 59.5 23.5t21.5 63.5v82q0 63 -3 95q-3 44 -35 98q111 2 162 5q-7 -111 -7 -180zM518 599q-44 23 -66 23q-39 0 -79 -29v8q0 50 29 80t70 30q31 0 66 -19q44 -23 66 -23q39 0 79 29v-8q0 -50 -29 -80t-70 -30q-31 0 -66 19z" />
    <glyph glyph-name="fscaron" unicode="f&#x161;" horiz-adv-x="599" 
d="M68 544q18 96 60.5 147.5t102.5 51.5q46 0 76 -11q6 -26 6 -60q0 -57 -31 -100q-32 58 -49 77.5t-35 19.5q-29 0 -29 -47q0 -3 2 -65q3 -47 3 -88v-35q37 1 116 4l-30 -66h-86v-190q0 -40 4 -93q5 -47 37 -90h-10q-29 0 -49 1q-40 2 -42 2q-7 0 -37.5 -1.5t-43.5 -1.5
h-11q32 45 33 90q2 80 2 93v147q0 30 -7.5 46.5t-30.5 33.5l7 7q19 19 25 43l7 23q2 6 5 31t5 31zM431 36q24 0 37.5 13.5t13.5 34.5q0 24 -17.5 43t-62.5 44q-63 35 -90.5 68.5t-27.5 75.5q0 57 44 96q45 39 107 39q71 0 126 -24q8 -34 8 -58q0 -54 -27 -97
q-55 127 -113 127q-21 0 -33.5 -13t-12.5 -33q0 -23 20 -43.5t74 -51.5q60 -35 84.5 -67t24.5 -72q0 -62 -46 -98.5t-119 -36.5q-74 0 -134 23q-8 43 -8 63q0 59 24 105q34 -73 62.5 -105.5t65.5 -32.5zM429 680l115 87l-115 -282l-115 282z" />
    <glyph glyph-name="fydieresis" unicode="f&#xff;" horiz-adv-x="750" 
d="M464 -100l32 75l-116 276q-2 5 -18.5 45t-24.5 56q-5 10 -18 39t-21 42h12q2 0 44 -2q21 -1 46 -1q10 0 39 1.5t37 1.5h13q-19 -42 -19 -66q0 -30 32 -114l53 -135l53 139q22 58 22 97t-21 79h12q9 0 31.5 -1.5t27.5 -1.5t28 1.5t32 1.5h15q-20 -33 -50 -93
q-21 -44 -39 -89l-149 -373q-30 -75 -65 -107.5t-84 -32.5q-33 0 -72 17q-7 24 -7 56q0 36 18 78q44 -43 96 -43q39 0 61 54zM544 651l-82 -82l-82 82l82 82zM715 651l-80 -82l-82 82l82 82zM68 544q18 96 60.5 147.5t102.5 51.5q46 0 76 -11q6 -26 6 -60q0 -57 -31 -100
q-32 58 -49 77.5t-35 19.5q-29 0 -29 -47q0 -3 2 -65q3 -47 3 -88v-35q37 1 116 4l-30 -66h-86v-190q0 -40 4 -93q5 -47 37 -90h-10q-29 0 -49 1q-40 2 -42 2q-7 0 -37.5 -1.5t-43.5 -1.5h-11q32 45 33 90q2 80 2 93v147q0 30 -7.5 46.5t-30.5 33.5l7 7q19 19 25 43l7 23
q2 6 5 31t5 31z" />
    <glyph glyph-name="flcaron" unicode="f&#x13e;" horiz-adv-x="507" 
d="M295 182v368q0 27 -3 60q-8 74 -51 74q-31 0 -49 -36.5t-18 -108.5v-105l96 4l-30 -66h-66v-190q0 -40 4 -93q5 -47 37 -90h-10q-29 0 -49 1q-40 2 -42 2q-7 0 -37.5 -1.5t-43.5 -1.5h-11q32 45 33 90q2 80 2 93v147q0 30 -7.5 46.5t-30.5 33.5l7 7q19 19 28 53
q2 8 7 37.5t7 37.5q21 97 73 148t130 51q64 0 96 -20q24 9 50 21q-5 -82 -5 -181v-381q0 -13 2 -93q2 -53 24 -90h-13q-12 0 -39 1.5t-34 1.5t-37.5 -1.5t-42.5 -1.5h-12q32 39 33 90q2 80 2 93zM615 720l-139 -196l-2 241z" />
    <glyph glyph-name="fzdotaccent" unicode="f&#x17c;" horiz-adv-x="674" 
d="M421 431h86q74 0 170 3l-77 -124l-164 -258q71 0 96 4q36 4 60 36q28 36 63 111q8 -40 8 -92q0 -55 -11 -116q-31 1 -65.5 2.5t-49 2t-18.5 0.5h-110q-38 0 -144 -2l89 135l159 245h-16q-72 0 -103 -10q-46 -15 -88 -109q-11 52 -11 89q0 43 13 88q55 -5 113 -5zM573 659
l-98 -97l-97 97l97 98zM68 544q18 96 60.5 147.5t102.5 51.5q46 0 76 -11q6 -26 6 -60q0 -57 -31 -100q-32 58 -49 77.5t-35 19.5q-29 0 -29 -47q0 -3 2 -65q3 -47 3 -88v-35q37 1 116 4l-30 -66h-86v-190q0 -40 4 -93q5 -47 37 -90h-10q-29 0 -49 1q-40 2 -42 2
q-7 0 -37.5 -1.5t-43.5 -1.5h-11q32 45 33 90q2 80 2 93v147q0 30 -7.5 46.5t-30.5 33.5l7 7q19 19 25 43l7 23q2 6 5 31t5 31z" />
    <glyph glyph-name="fabreve" unicode="f&#x103;" horiz-adv-x="663" 
d="M68 544q18 96 60.5 147.5t102.5 51.5q46 0 76 -11q6 -26 6 -60q0 -57 -31 -100q-32 58 -49 77.5t-35 19.5q-29 0 -29 -47q0 -3 2 -65q3 -47 3 -88v-35q37 1 116 4l-30 -66h-86v-190q0 -40 4 -93q5 -47 37 -90h-10q-29 0 -49 1q-40 2 -42 2q-7 0 -37.5 -1.5t-43.5 -1.5
h-11q32 45 33 90q2 80 2 93v147q0 30 -7.5 46.5t-30.5 33.5l7 7q19 19 25 43l7 23q2 6 5 31t5 31zM501 170v29q-28 -11 -46 -20q-66 -35 -66 -79q0 -17 10.5 -27.5t28.5 -10.5q30 0 51.5 29.5t21.5 78.5zM501 253v25q0 40 -21 61q-21 22 -57 22q-63 0 -115 -40q0 57 40 92.5
t106 35.5q84 0 128 -54q35 -44 35 -118v-79q0 -47 1 -68q2 -55 8 -77q7 -25 27 -58q-18 -3 -34 -3q-95 0 -113 78q-38 -86 -124 -86q-47 0 -76 28t-29 71q0 67 68 108q48 30 156 62zM336 681q0 33 11 72q41 -138 126 -138t126 138q11 -39 11 -72q0 -73 -37.5 -119.5
t-99.5 -46.5t-99.5 46.5t-37.5 119.5z" />
    <glyph glyph-name="flacute" unicode="f&#x13a;" horiz-adv-x="461" 
d="M295 182v368q0 27 -3 60q-8 74 -51 74q-31 0 -49 -36.5t-18 -108.5v-105l96 4l-30 -66h-66v-190q0 -40 4 -93q5 -47 37 -90h-10q-29 0 -49 1q-40 2 -42 2q-7 0 -37.5 -1.5t-43.5 -1.5h-11q32 45 33 90q2 80 2 93v147q0 30 -7.5 46.5t-30.5 33.5l7 7q19 19 28 53
q2 8 7 37.5t7 37.5q21 97 73 148t130 51q64 0 96 -20q24 9 50 21q-5 -82 -5 -181v-381q0 -13 2 -93q2 -53 24 -90h-13q-12 0 -39 1.5t-34 1.5t-37.5 -1.5t-42.5 -1.5h-12q32 39 33 90q2 80 2 93zM551 809l-265 -54l198 175z" />
    <glyph glyph-name="fccaron" unicode="f&#x10d;" horiz-adv-x="688" 
d="M68 544q18 96 60.5 147.5t102.5 51.5q46 0 76 -11q6 -26 6 -60q0 -57 -31 -100q-32 58 -49 77.5t-35 19.5q-29 0 -29 -47q0 -3 2 -65q3 -47 3 -88v-35q37 1 116 4l-30 -66h-86v-190q0 -40 4 -93q5 -47 37 -90h-10q-29 0 -49 1q-40 2 -42 2q-7 0 -37.5 -1.5t-43.5 -1.5
h-11q32 45 33 90q2 80 2 93v147q0 30 -7.5 46.5t-30.5 33.5l7 7q19 19 25 43l7 23q2 6 5 31t5 31zM498 391q-47 0 -76.5 -40t-29.5 -110t35 -112t95 -42q41 0 74.5 19.5t71.5 62.5q0 -88 -46 -137t-125 -49q-97 0 -161 66q-64 65 -64 158q0 106 69 175q71 69 168 69
q92 0 153 -34q5 -35 5 -64q0 -68 -43 -123q-35 87 -63 124t-63 37zM501 680l115 87l-115 -282l-115 282z" />
    <glyph glyph-name="fecaron" unicode="f&#x11b;" horiz-adv-x="711" 
d="M68 544q18 96 60.5 147.5t102.5 51.5q46 0 76 -11q6 -26 6 -60q0 -57 -31 -100q-32 58 -49 77.5t-35 19.5q-29 0 -29 -47q0 -3 2 -65q3 -47 3 -88v-35q37 1 116 4l-30 -66h-86v-190q0 -40 4 -93q5 -47 37 -90h-10q-29 0 -49 1q-40 2 -42 2q-7 0 -37.5 -1.5t-43.5 -1.5
h-11q32 45 33 90q2 80 2 93v147q0 30 -7.5 46.5t-30.5 33.5l7 7q19 19 25 43l7 23q2 6 5 31t5 31zM278 208q0 105 65 175q66 69 161 69q85 0 137 -49t52 -126q0 -13 -2 -29h-297q-1 -4 -1 -14q0 -65 34.5 -105.5t91.5 -40.5q83 0 159 87q2 -16 2 -24q0 -69 -51 -119
q-51 -48 -125 -48q-98 0 -162 66q-64 65 -64 158zM400 300h171q-3 94 -75 94q-34 0 -60.5 -26t-35.5 -68zM498 680l115 87l-115 -282l-115 282z" />
    <glyph glyph-name="frcaron" unicode="f&#x159;" horiz-adv-x="612" 
d="M442 218v-36q0 -13 2 -93q2 -53 24 -90h-13q-12 0 -39 1.5t-34 1.5t-37.5 -1.5t-42.5 -1.5h-12q32 39 33 90q2 80 2 93v37q0 57 -3 86q-4 53 -39 75q83 28 164 64q-7 -45 -7 -105q42 112 114 112q33 0 58 -11q5 -25 5 -59q0 -69 -36 -115q-18 37 -40.5 57.5t-44.5 20.5
q-13 2 -24.5 -9t-20.5 -41t-9 -76zM473 680l115 87l-115 -282l-115 282zM68 544q18 96 60.5 147.5t102.5 51.5q46 0 76 -11q6 -26 6 -60q0 -57 -31 -100q-32 58 -49 77.5t-35 19.5q-29 0 -29 -47q0 -3 2 -65q3 -47 3 -88v-35q37 1 116 4l-30 -66h-86v-190q0 -40 4 -93
q5 -47 37 -90h-10q-29 0 -49 1q-40 2 -42 2q-7 0 -37.5 -1.5t-43.5 -1.5h-11q32 45 33 90q2 80 2 93v147q0 30 -7.5 46.5t-30.5 33.5l7 7q19 19 25 43l7 23q2 6 5 31t5 31z" />
    <glyph glyph-name="famacron" unicode="f&#x101;" horiz-adv-x="662" 
d="M500 170v29q-28 -11 -46 -20q-66 -35 -66 -79q0 -17 10.5 -27.5t28.5 -10.5q30 0 51.5 29.5t21.5 78.5zM500 253v25q0 40 -21 61q-21 22 -57 22q-63 0 -115 -40q0 57 40 92.5t106 35.5q85 0 128 -54q35 -44 35 -118v-79q0 -47 1 -68q2 -55 8 -77q7 -25 27 -58
q-18 -3 -34 -3q-95 0 -113 78q-38 -86 -124 -86q-47 0 -76 28t-29 71q0 67 68 108q48 30 156 62zM68 544q18 96 60.5 147.5t102.5 51.5q46 0 76 -11q6 -26 6 -60q0 -57 -31 -100q-32 58 -49 77.5t-35 19.5q-29 0 -29 -47q0 -3 2 -65q3 -47 3 -88v-35q37 1 116 4l-30 -66h-86
v-190q0 -40 4 -93q5 -47 37 -90h-10q-29 0 -49 1q-40 2 -42 2q-7 0 -37.5 -1.5t-43.5 -1.5h-11q32 45 33 90q2 80 2 93v147q0 30 -7.5 46.5t-30.5 33.5l7 7q19 19 25 43l7 23q2 6 5 31t5 31zM623 606h-283v76h283v-76z" />
    <glyph glyph-name="femacron" unicode="f&#x113;" horiz-adv-x="711" 
d="M68 544q18 96 60.5 147.5t102.5 51.5q46 0 76 -11q6 -26 6 -60q0 -57 -31 -100q-32 58 -49 77.5t-35 19.5q-29 0 -29 -47q0 -3 2 -65q3 -47 3 -88v-35q37 1 116 4l-30 -66h-86v-190q0 -40 4 -93q5 -47 37 -90h-10q-29 0 -49 1q-40 2 -42 2q-7 0 -37.5 -1.5t-43.5 -1.5
h-11q32 45 33 90q2 80 2 93v147q0 30 -7.5 46.5t-30.5 33.5l7 7q19 19 25 43l7 23q2 6 5 31t5 31zM278 208q0 105 65 175q66 69 161 69q85 0 137 -49t52 -126q0 -13 -2 -29h-297q-1 -4 -1 -14q0 -65 34.5 -105.5t91.5 -40.5q83 0 159 87q2 -16 2 -24q0 -69 -51 -119
q-51 -48 -125 -48q-98 0 -162 66q-64 65 -64 158zM400 300h171q-3 94 -75 94q-34 0 -60.5 -26t-35.5 -68zM632 606h-283v76h283v-76z" />
    <glyph glyph-name="fiogonek" unicode="f&#x12f;" horiz-adv-x="466" 
d="M438 -90v-11q0 -46 -26 -73t-69 -27q-40 0 -64 22t-24 58q0 66 93 123q-7 0 -36 -1.5t-40 -1.5h-12q32 39 33 90q2 80 2 93v37q0 51 -3 94q-2 32 -17.5 45.5t-52.5 13.5h-48v-190q0 -40 4 -93q5 -47 37 -90h-10q-29 0 -49 1q-40 2 -42 2q-7 0 -37.5 -1.5t-43.5 -1.5h-11
q32 45 33 90q2 80 2 93v147q0 30 -7.5 46.5t-30.5 33.5l7 7q19 19 28 53q2 8 7 37.5t7 37.5q21 95 75 147t133 52q82 0 134 -21q7 -25 7 -64q0 -73 -53 -123q-40 89 -59 116q-23 33 -52 33q-79 0 -79 -170v-80h115q63 0 128 17q-5 -117 -5 -181v-88q0 -13 2 -93
q2 -53 24 -90h-13q-11 0 -45 2q-48 -45 -48 -95q0 -42 36 -42q34 0 70 46z" />
    <glyph glyph-name="fimacron" unicode="f&#x12b;" horiz-adv-x="592" 
d="M68 544q18 96 60.5 147.5t102.5 51.5q46 0 76 -11q6 -26 6 -60q0 -57 -31 -100q-32 58 -49 77.5t-35 19.5q-29 0 -29 -47q0 -3 2 -65q3 -47 3 -88v-35q37 1 116 4l-30 -66h-86v-190q0 -40 4 -93q5 -47 37 -90h-10q-29 0 -49 1q-40 2 -42 2q-7 0 -37.5 -1.5t-43.5 -1.5
h-11q32 45 33 90q2 80 2 93v147q0 30 -7.5 46.5t-30.5 33.5l7 7q19 19 25 43l7 23q2 6 5 31t5 31zM538 263v-81q0 -13 2 -93q2 -53 24 -90h-13q-12 0 -39 1.5t-34 1.5t-37.5 -1.5t-42.5 -1.5h-12q32 39 33 90q2 80 2 93v37q0 57 -3 86q-3 28 -11 43t-28 32q93 33 164 64
q-5 -93 -5 -181zM617 606h-283v76h283v-76z" />
    <glyph glyph-name="fomacron" unicode="f&#x14d;" horiz-adv-x="769" 
d="M68 544q18 96 60.5 147.5t102.5 51.5q46 0 76 -11q6 -26 6 -60q0 -57 -31 -100q-32 58 -49 77.5t-35 19.5q-29 0 -29 -47q0 -3 2 -65q3 -47 3 -88v-35q37 1 116 4l-30 -66h-86v-190q0 -40 4 -93q5 -47 37 -90h-10q-29 0 -49 1q-40 2 -42 2q-7 0 -37.5 -1.5t-43.5 -1.5
h-11q32 45 33 90q2 80 2 93v147q0 30 -7.5 46.5t-30.5 33.5l7 7q19 19 25 43l7 23q2 6 5 31t5 31zM513 393q-50 0 -79.5 -44t-29.5 -124q0 -87 31.5 -135.5t86.5 -48.5q49 0 77.5 44.5t28.5 124.5q0 83 -34 132q-33 51 -81 51zM276 217q0 97 69 165q69 69 171 69
q106 0 173 -67q68 -68 68 -167q0 -98 -68 -166t-168 -68q-109 0 -177 67q-68 68 -68 167zM657 606h-283v76h283v-76z" />
    <glyph glyph-name="flcommaaccent" unicode="f&#x13c;" horiz-adv-x="461" 
d="M295 182v368q0 27 -3 60q-8 74 -51 74q-31 0 -49 -36.5t-18 -108.5v-105l96 4l-30 -66h-66v-190q0 -40 4 -93q5 -47 37 -90h-10q-29 0 -49 1q-40 2 -42 2q-7 0 -37.5 -1.5t-43.5 -1.5h-11q32 45 33 90q2 80 2 93v147q0 30 -7.5 46.5t-30.5 33.5l7 7q19 19 28 53
q2 8 7 37.5t7 37.5q21 97 73 148t130 51q64 0 96 -20q24 9 50 21q-5 -82 -5 -181v-381q0 -13 2 -93q2 -53 24 -90h-13q-12 0 -39 1.5t-34 1.5t-37.5 -1.5t-42.5 -1.5h-12q32 39 33 90q2 80 2 93zM424 -70l-139 -196l-2 241z" />
    <glyph glyph-name="fumacron" unicode="f&#x16b;" horiz-adv-x="770" 
d="M68 544q18 96 60.5 147.5t102.5 51.5q46 0 76 -11q6 -26 6 -60q0 -57 -31 -100q-32 58 -49 77.5t-35 19.5q-29 0 -29 -47q0 -3 2 -65q3 -47 3 -88v-35q37 1 116 4l-30 -66h-86v-190q0 -40 4 -93q5 -47 37 -90h-10q-29 0 -49 1q-40 2 -42 2q-7 0 -37.5 -1.5t-43.5 -1.5
h-11q32 45 33 90q2 80 2 93v147q0 30 -7.5 46.5t-30.5 33.5l7 7q19 19 25 43l7 23q2 6 5 31t5 31zM714 257v-50q0 -57 3 -86q5 -47 39 -75l-153 -57l-3 87q-31 -50 -59.5 -72t-71.5 -22q-73 0 -110 60q-23 38 -23 97v100q0 63 -3 95q-3 44 -35 98q111 2 162 5
q-7 -111 -7 -180v-115q0 -72 63 -72q38 0 59.5 23.5t21.5 63.5v82q0 63 -3 95q-3 44 -35 98q111 2 162 5q-7 -111 -7 -180zM662 606h-283v76h283v-76z" />
    <glyph glyph-name="fgbreve" unicode="f&#x11f;" horiz-adv-x="714" 
d="M68 544q18 96 60.5 147.5t102.5 51.5q46 0 76 -11q6 -26 6 -60q0 -57 -31 -100q-32 58 -49 77.5t-35 19.5q-29 0 -29 -47q0 -3 2 -65q3 -47 3 -88v-35q37 1 116 4l-30 -66h-86v-190q0 -40 4 -93q5 -47 37 -90h-10q-29 0 -49 1q-40 2 -42 2q-7 0 -37.5 -1.5t-43.5 -1.5
h-11q32 45 33 90q2 80 2 93v147q0 30 -7.5 46.5t-30.5 33.5l7 7q19 19 25 43l7 23q2 6 5 31t5 31zM740 437l-25 -75l-77 28q42 -40 42 -102q0 -74 -53 -124q-53 -48 -128 -48q-73 0 -119 39q-23 -21 -23 -49q0 -42 67 -45l109 -5q80 -4 122 -42.5t42 -100.5q0 -76 -67 -131
q-66 -57 -168 -57q-94 0 -144.5 35t-50.5 93q0 63 74 116q-65 33 -65 103q0 64 69 113q-31 46 -31 93q0 70 53 120t126 50q20 0 66 -7.5t64 -7.5q76 0 117 4zM622 -118q0 54 -95 57q-115 5 -151 11q-14 -26 -14 -51q0 -40 39.5 -65t109.5 -25q53 0 82 21t29 52zM494 398
q-28 0 -44 -28.5t-16 -82.5q0 -121 61 -121q60 0 60 110q0 57 -16.5 89.5t-44.5 32.5zM355 681q0 33 11 72q40 -138 126 -138t126 138q11 -39 11 -72q0 -73 -37.5 -119.5t-99.5 -46.5t-99.5 46.5t-37.5 119.5z" />
    <glyph glyph-name="febreve" unicode="f&#x115;" horiz-adv-x="711" 
d="M68 544q18 96 60.5 147.5t102.5 51.5q46 0 76 -11q6 -26 6 -60q0 -57 -31 -100q-32 58 -49 77.5t-35 19.5q-29 0 -29 -47q0 -3 2 -65q3 -47 3 -88v-35q37 1 116 4l-30 -66h-86v-190q0 -40 4 -93q5 -47 37 -90h-10q-29 0 -49 1q-40 2 -42 2q-7 0 -37.5 -1.5t-43.5 -1.5
h-11q32 45 33 90q2 80 2 93v147q0 30 -7.5 46.5t-30.5 33.5l7 7q19 19 25 43l7 23q2 6 5 31t5 31zM278 208q0 105 65 175q66 69 161 69q85 0 137 -49t52 -126q0 -13 -2 -29h-297q-1 -4 -1 -14q0 -65 34.5 -105.5t91.5 -40.5q83 0 159 87q2 -16 2 -24q0 -69 -51 -119
q-51 -48 -125 -48q-98 0 -162 66q-64 65 -64 158zM400 300h171q-3 94 -75 94q-34 0 -60.5 -26t-35.5 -68zM365 681q0 33 11 72q40 -138 126 -138t126 138q11 -39 11 -72q0 -73 -37.5 -119.5t-99.5 -46.5t-99.5 46.5t-37.5 119.5z" />
    <glyph glyph-name="fhcircumflex" unicode="f&#x125;" horiz-adv-x="730" 
d="M295 182v368q0 27 -3 60q-8 74 -51 74q-31 0 -49 -36.5t-18 -108.5v-105l96 4l-30 -66h-66v-190q0 -40 4 -93q5 -47 37 -90h-10q-29 0 -49 1q-40 2 -42 2q-7 0 -37.5 -1.5t-43.5 -1.5h-11q32 45 33 90q2 80 2 93v147q0 30 -7.5 46.5t-30.5 33.5l7 7q19 19 28 53
q2 8 7 37.5t7 37.5q21 97 73 148t130 51q64 0 96 -20q24 9 50 21q-5 -82 -5 -181v-201q27 46 57 67.5t73 21.5q74 0 112 -60q23 -38 23 -97v-112q0 -13 2 -93q2 -50 34 -90h-11q-13 0 -42 1.5t-36 1.5t-35.5 -1.5t-40.5 -1.5h-13q21 34 23 90q2 80 2 93v109q0 34 -17 53
t-48 19q-38 0 -60.5 -24t-22.5 -63v-94q0 -13 2 -93q2 -53 24 -90h-13q-12 0 -39 1.5t-34 1.5t-37.5 -1.5t-42.5 -1.5h-12q32 39 33 90q2 80 2 93zM182 766l173 168l173 -168l-173 44z" />
    <glyph glyph-name="fhbar" unicode="f&#x127;" horiz-adv-x="730" 
d="M412 588h169v-58h-169v-168q27 46 57 67.5t73 21.5q74 0 112 -60q23 -38 23 -97v-112q0 -13 2 -93q2 -50 34 -90h-11q-13 0 -42 1.5t-36 1.5t-35.5 -1.5t-40.5 -1.5h-13q21 34 23 90q2 80 2 93v109q0 34 -17 53t-48 19q-38 0 -60.5 -24t-22.5 -63v-94q0 -13 2 -93
q2 -53 24 -90h-13q-12 0 -39 1.5t-34 1.5t-37.5 -1.5t-42.5 -1.5h-12q32 39 33 90q2 80 2 93v348h-52v58h51q-2 18 -2 22q-8 74 -51 74q-31 0 -49 -36.5t-18 -108.5v-105l96 4l-30 -66h-66v-190q0 -40 4 -93q5 -47 37 -90h-10q-29 0 -49 1q-40 2 -42 2q-7 0 -37.5 -1.5
t-43.5 -1.5h-11q32 45 33 90q2 80 2 93v147q0 30 -7.5 46.5t-30.5 33.5l7 7q19 19 28 53q2 8 7 37.5t7 37.5q21 97 73 148t130 51q64 0 96 -20q24 9 50 21q-5 -88 -5 -156z" />
    <glyph glyph-name="fitilde" unicode="f&#x129;" horiz-adv-x="524" 
d="M414 578q-44 23 -63 23q-29 0 -69 -29q-32 58 -49 77.5t-35 19.5q-29 0 -29 -47q0 -3 2 -65q3 -47 3 -88v-35q37 1 116 4l-30 -66h-86v-190q0 -40 4 -93q5 -47 37 -90h-10q-29 0 -49 1q-40 2 -42 2q-7 0 -37.5 -1.5t-43.5 -1.5h-11q32 45 33 90q2 80 2 93v147
q0 30 -7.5 46.5t-30.5 33.5l7 7q19 19 25 43l7 23q2 6 5 31t5 31q18 96 60.5 147.5t102.5 51.5q46 0 76 -11q6 -26 6 -60v-8q26 26 58 26q28 0 63 -19q44 -23 63 -23q35 0 69 29v-8q0 -50 -26 -80t-63 -30q-28 0 -63 19zM470 263v-81q0 -13 2 -93q2 -53 24 -90h-13
q-12 0 -39 1.5t-34 1.5t-37.5 -1.5t-42.5 -1.5h-12q32 39 33 90q2 80 2 93v37q0 57 -3 86q-3 28 -11 43t-28 32q93 33 164 64q-5 -93 -5 -181z" />
    <glyph glyph-name="fibreve" unicode="f&#x12d;" horiz-adv-x="500" 
d="M386 515q-70 0 -113 72q-29 49 -44 65.5t-31 16.5q-29 0 -29 -47q0 -3 2 -65q3 -47 3 -88v-35q37 1 116 4l-30 -66h-86v-190q0 -40 4 -93q5 -47 37 -90h-10q-29 0 -49 1q-40 2 -42 2q-7 0 -37.5 -1.5t-43.5 -1.5h-11q32 45 33 90q2 80 2 93v147q0 30 -7.5 46.5
t-30.5 33.5l7 7q19 19 25 43l7 23q2 6 5 31t5 31q18 96 60.5 147.5t102.5 51.5q46 0 76 -11q6 -26 6 -60q0 -7 -2 -31q29 -26 75 -26q86 0 126 138q11 -39 11 -72q0 -73 -37.5 -119.5t-99.5 -46.5zM446 263v-81q0 -13 2 -93q2 -53 24 -90h-13q-12 0 -39 1.5t-34 1.5
t-37.5 -1.5t-42.5 -1.5h-12q32 39 33 90q2 80 2 93v37q0 57 -3 86q-3 28 -11 43t-28 32q93 33 164 64q-5 -93 -5 -181z" />
    <glyph glyph-name="fij" unicode="f&#x133;" horiz-adv-x="675" 
d="M412 270v-88q0 -13 2 -93q2 -53 24 -90h-13q-12 0 -39 1.5t-34 1.5t-37.5 -1.5t-42.5 -1.5h-12q32 39 33 90q2 80 2 93v37q0 51 -3 94q-2 32 -17.5 45.5t-52.5 13.5h-48v-190q0 -40 4 -93q5 -47 37 -90h-10q-29 0 -49 1q-40 2 -42 2q-7 0 -37.5 -1.5t-43.5 -1.5h-11
q32 45 33 90q2 80 2 93v147q0 30 -7.5 46.5t-30.5 33.5l7 7q19 19 28 53q2 8 7 37.5t7 37.5q21 95 75 147t133 52q82 0 134 -21q7 -25 7 -64q0 -73 -53 -123q-40 89 -59 116q-23 33 -52 33q-79 0 -79 -170v-80h115q63 0 128 17q-5 -117 -5 -181zM638 263v-130q0 -76 3 -142
q-4 -98 -57 -169q-50 -69 -127 -86q33 58 49 111q15 49 15 122v250q0 57 -3 86q-3 28 -11 43t-28 32q93 33 164 64q-5 -93 -5 -181zM677 659l-98 -97l-97 97l97 98z" />
    <glyph glyph-name="fjcircumflex" unicode="f&#x135;" horiz-adv-x="499" 
d="M68 544q18 96 60.5 147.5t102.5 51.5q46 0 76 -11q6 -26 6 -60q0 -57 -31 -100q-32 58 -49 77.5t-35 19.5q-29 0 -29 -47q0 -3 2 -65q3 -47 3 -88v-35q37 1 116 4l-30 -66h-86v-190q0 -40 4 -93q5 -47 37 -90h-10q-29 0 -49 1q-40 2 -42 2q-7 0 -37.5 -1.5t-43.5 -1.5
h-11q32 45 33 90q2 80 2 93v147q0 30 -7.5 46.5t-30.5 33.5l7 7q19 19 25 43l7 23q2 6 5 31t5 31zM462 263v-130q0 -76 3 -142q-4 -98 -57 -169q-50 -69 -127 -86q33 58 49 111q15 49 15 122v250q0 57 -3 86q-3 28 -11 43t-28 32q93 33 164 64q-5 -93 -5 -181zM288 485
l115 282l115 -282l-115 87z" />
    <glyph glyph-name="fldot" unicode="f&#x140;" horiz-adv-x="624" 
d="M295 182v368q0 27 -3 60q-8 74 -51 74q-31 0 -49 -36.5t-18 -108.5v-105l96 4l-30 -66h-66v-190q0 -40 4 -93q5 -47 37 -90h-10q-29 0 -49 1q-40 2 -42 2q-7 0 -37.5 -1.5t-43.5 -1.5h-11q32 45 33 90q2 80 2 93v147q0 30 -7.5 46.5t-30.5 33.5l7 7q19 19 28 53
q2 8 7 37.5t7 37.5q21 97 73 148t130 51q64 0 96 -20q24 9 50 21q-5 -82 -5 -181v-381q0 -13 2 -93q2 -53 24 -90h-13q-12 0 -39 1.5t-34 1.5t-37.5 -1.5t-42.5 -1.5h-12q32 39 33 90q2 80 2 93zM644 215l-98 -97l-97 97l97 98z" />
    <glyph glyph-name="fnapostrophe" unicode="f&#x149;" horiz-adv-x="760" 
d="M442 276v-94q0 -13 2 -93q2 -53 24 -90h-13q-12 0 -39 1.5t-34 1.5t-37.5 -1.5t-42.5 -1.5h-12q32 39 33 90q2 80 2 93v37q0 57 -3 86q-4 53 -39 75q83 28 164 64q-7 -45 -7 -85q29 48 59 70t73 22q74 0 112 -60q23 -38 23 -97v-112q0 -13 2 -93q2 -50 34 -90h-11
q-13 0 -42 1.5t-36 1.5t-35.5 -1.5t-40.5 -1.5h-13q21 34 23 90q2 80 2 93v109q0 34 -17 53t-48 19q-38 0 -60.5 -24t-22.5 -63zM68 544q18 96 60.5 147.5t102.5 51.5q46 0 76 -11q6 -26 6 -60q0 -57 -31 -100q-32 58 -49 77.5t-35 19.5q-29 0 -29 -47q0 -3 2 -65
q3 -47 3 -88v-35q37 1 116 4l-30 -66h-86v-190q0 -40 4 -93q5 -47 37 -90h-10q-29 0 -49 1q-40 2 -42 2q-7 0 -37.5 -1.5t-43.5 -1.5h-11q32 45 33 90q2 80 2 93v147q0 30 -7.5 46.5t-30.5 33.5l7 7q19 19 25 43l7 23q2 6 5 31t5 31zM496 702l-139 -196l-2 241z" />
    <glyph glyph-name="fobreve" unicode="f&#x14f;" horiz-adv-x="769" 
d="M68 544q18 96 60.5 147.5t102.5 51.5q46 0 76 -11q6 -26 6 -60q0 -57 -31 -100q-32 58 -49 77.5t-35 19.5q-29 0 -29 -47q0 -3 2 -65q3 -47 3 -88v-35q37 1 116 4l-30 -66h-86v-190q0 -40 4 -93q5 -47 37 -90h-10q-29 0 -49 1q-40 2 -42 2q-7 0 -37.5 -1.5t-43.5 -1.5
h-11q32 45 33 90q2 80 2 93v147q0 30 -7.5 46.5t-30.5 33.5l7 7q19 19 25 43l7 23q2 6 5 31t5 31zM513 393q-50 0 -79.5 -44t-29.5 -124q0 -87 31.5 -135.5t86.5 -48.5q49 0 77.5 44.5t28.5 124.5q0 83 -34 132q-33 51 -81 51zM276 217q0 97 69 165q69 69 171 69
q106 0 173 -67q68 -68 68 -167q0 -98 -68 -166t-168 -68q-109 0 -177 67q-68 68 -68 167zM379 681q0 33 11 72q40 -138 126 -138t126 138q11 -39 11 -72q0 -73 -37.5 -119.5t-99.5 -46.5t-99.5 46.5t-37.5 119.5z" />
    <glyph glyph-name="fscircumflex" unicode="f&#x15d;" horiz-adv-x="599" 
d="M68 544q18 96 60.5 147.5t102.5 51.5q46 0 76 -11q6 -26 6 -60q0 -57 -31 -100q-32 58 -49 77.5t-35 19.5q-29 0 -29 -47q0 -3 2 -65q3 -47 3 -88v-35q37 1 116 4l-30 -66h-86v-190q0 -40 4 -93q5 -47 37 -90h-10q-29 0 -49 1q-40 2 -42 2q-7 0 -37.5 -1.5t-43.5 -1.5
h-11q32 45 33 90q2 80 2 93v147q0 30 -7.5 46.5t-30.5 33.5l7 7q19 19 25 43l7 23q2 6 5 31t5 31zM431 36q24 0 37.5 13.5t13.5 34.5q0 24 -17.5 43t-62.5 44q-63 35 -90.5 68.5t-27.5 75.5q0 57 44 96q45 39 107 39q71 0 126 -24q8 -34 8 -58q0 -54 -27 -97
q-55 127 -113 127q-21 0 -33.5 -13t-12.5 -33q0 -23 20 -43.5t74 -51.5q60 -35 84.5 -67t24.5 -72q0 -62 -46 -98.5t-119 -36.5q-74 0 -134 23q-8 43 -8 63q0 59 24 105q34 -73 62.5 -105.5t65.5 -32.5zM320 485l115 282l115 -282l-115 87z" />
    <glyph glyph-name="fubreve" unicode="f&#x16d;" horiz-adv-x="770" 
d="M714 257v-50q0 -57 3 -86q5 -47 39 -75l-153 -57l-3 87q-31 -50 -59.5 -72t-71.5 -22q-73 0 -110 60q-23 38 -23 97v100q0 63 -3 95q-3 44 -35 98q111 2 162 5q-7 -111 -7 -180v-115q0 -72 63 -72q38 0 59.5 23.5t21.5 63.5v82q0 63 -3 95q-3 44 -35 98q111 2 162 5
q-7 -111 -7 -180zM384 681q0 33 11 72q41 -138 126 -138t126 138q11 -39 11 -72q0 -73 -37.5 -119.5t-99.5 -46.5t-99.5 46.5t-37.5 119.5zM68 544q18 96 60.5 147.5t102.5 51.5q46 0 76 -11q6 -26 6 -60q0 -57 -31 -100q-32 58 -49 77.5t-35 19.5q-29 0 -29 -47q0 -3 2 -65
q3 -47 3 -88v-35q37 1 116 4l-30 -66h-86v-190q0 -40 4 -93q5 -47 37 -90h-10q-29 0 -49 1q-40 2 -42 2q-7 0 -37.5 -1.5t-43.5 -1.5h-11q32 45 33 90q2 80 2 93v147q0 30 -7.5 46.5t-30.5 33.5l7 7q19 19 25 43l7 23q2 6 5 31t5 31z" />
    <glyph glyph-name="fflslash" unicode="ff&#x142;" horiz-adv-x="739" 
d="M295 182v115q0 44 -12.5 59.5t-49.5 15.5h-59v-190q0 -71 8 -111.5t33 -71.5h-10q-29 0 -49 1q-40 2 -42 2q-7 0 -37.5 -1.5t-43.5 -1.5h-11q16 24 24 56q8 29 10 55q1 16 1 72v147q0 30 -7.5 46.5t-30.5 33.5l7 7q19 19 25 43l7 23q2 6 5 31t5 31q18 96 60.5 147.5
t102.5 51.5q46 0 76 -11q6 -26 6 -60q0 -57 -31 -100q-32 58 -49 77.5t-35 19.5q-29 0 -29 -47q0 -3 2 -65q3 -47 3 -88v-35h121q6 83 11 110q22 97 75 148t133 51q59 0 101 -20q24 9 50 21q-5 -82 -5 -181v-183l62 36l27 -46l-89 -52v-136q0 -13 2 -93q2 -53 24 -90h-13
q-12 0 -39 1.5t-34 1.5t-37.5 -1.5t-42.5 -1.5h-12q32 39 33 90q2 80 2 93v68l-52 -30l-26 46l78 45v239q0 27 -3 60q-8 74 -56 74q-32 0 -52 -37t-20 -108v-105l96 4l-30 -66h-66v-190q0 -40 4 -93q5 -47 37 -90h-10q-29 0 -49 1q-40 2 -42 2q-7 0 -37.5 -1.5t-43.5 -1.5
h-11q32 45 33 90q2 80 2 93z" />
    <glyph glyph-name="ffthorn" unicode="ff&#xfe;" horiz-adv-x="979" 
d="M295 182v115q0 44 -12.5 59.5t-49.5 15.5h-59v-190q0 -71 8 -111.5t33 -71.5h-10q-29 0 -49 1q-40 2 -42 2q-7 0 -37.5 -1.5t-43.5 -1.5h-11q16 24 24 56q8 29 10 55q1 16 1 72v147q0 30 -7.5 46.5t-30.5 33.5l7 7q19 19 25 43l7 23q2 6 5 31t5 31q18 96 60.5 147.5
t102.5 51.5q46 0 76 -11q6 -26 6 -60q0 -57 -31 -100q-32 58 -49 77.5t-35 19.5q-29 0 -29 -47q0 -3 2 -65q3 -47 3 -88v-35h121q6 83 11 110q46 199 203 199q64 0 96 -20q24 9 50 21q-5 -82 -5 -181v-199q42 87 132 87q78 0 131 -62q54 -61 54 -165q0 -108 -61 -175
q-62 -66 -149 -66q-63 0 -107 32v-96q0 -40 4 -93q5 -52 37 -90h-13q-7 0 -47 2q-19 1 -41 1q-7 0 -37.5 -1.5t-42.5 -1.5h-12q32 39 33 90q2 80 2 93v631q0 27 -3 60q-8 74 -51 74q-31 0 -49 -36.5t-18 -108.5v-105l96 4l-30 -66h-66v-190q0 -40 4 -93q5 -47 37 -90h-10
q-29 0 -49 1q-40 2 -42 2q-7 0 -37.5 -1.5t-43.5 -1.5h-11q32 45 33 90q2 80 2 93zM752 38q42 0 68.5 41t26.5 115q0 82 -30.5 128.5t-79.5 46.5q-40 0 -63.5 -30.5t-23.5 -84.5v-91q0 -62 27.5 -93.5t74.5 -31.5z" />
    <glyph glyph-name="ffb" unicode="ffb" horiz-adv-x="968" 
d="M295 182v115q0 44 -12.5 59.5t-49.5 15.5h-59v-190q0 -71 8 -111.5t33 -71.5h-10q-29 0 -49 1q-40 2 -42 2q-7 0 -37.5 -1.5t-43.5 -1.5h-11q16 24 24 56q8 29 10 55q1 16 1 72v147q0 30 -7.5 46.5t-30.5 33.5l7 7q19 19 25 43l7 23q2 6 5 31t5 31q18 96 60.5 147.5
t102.5 51.5q46 0 76 -11q6 -26 6 -60q0 -57 -31 -100q-32 58 -49 77.5t-35 19.5q-29 0 -29 -47q0 -3 2 -65q3 -47 3 -88v-35h121q6 83 11 110q46 199 203 199q64 0 96 -20q24 9 50 21q-5 -82 -5 -181v-211q50 99 140 99q72 0 119 -62t47 -154q0 -113 -64 -183
q-63 -70 -171 -70q-97 0 -188 42v526q0 27 -3 60q-8 74 -51 74q-31 0 -49 -36.5t-18 -108.5v-105l96 4l-30 -66h-66v-190q0 -40 4 -93q5 -47 37 -90h-10q-29 0 -49 1q-40 2 -42 2q-7 0 -37.5 -1.5t-43.5 -1.5h-11q32 45 33 90q2 80 2 93zM725 39q50 0 77.5 46t27.5 127
q0 69 -26 110t-71 41q-83 0 -83 -129v-97q0 -98 75 -98z" />
    <glyph glyph-name="ffh" unicode="ffh" horiz-adv-x="968" 
d="M295 182v115q0 44 -12.5 59.5t-49.5 15.5h-59v-190q0 -71 8 -111.5t33 -71.5h-10q-29 0 -49 1q-40 2 -42 2q-7 0 -37.5 -1.5t-43.5 -1.5h-11q16 24 24 56q8 29 10 55q1 16 1 72v147q0 30 -7.5 46.5t-30.5 33.5l7 7q19 19 25 43l7 23q2 6 5 31t5 31q18 96 60.5 147.5
t102.5 51.5q46 0 76 -11q6 -26 6 -60q0 -57 -31 -100q-32 58 -49 77.5t-35 19.5q-29 0 -29 -47q0 -3 2 -65q3 -47 3 -88v-35h121q6 83 11 110q46 199 203 199q64 0 96 -20q24 9 50 21q-5 -82 -5 -181v-201q27 46 57 67.5t73 21.5q74 0 112 -60q23 -38 23 -97v-112
q0 -13 2 -93q2 -50 34 -90h-11q-13 0 -42 1.5t-36 1.5t-35.5 -1.5t-40.5 -1.5h-13q21 34 23 90q2 80 2 93v109q0 34 -17 53t-48 19q-38 0 -60.5 -24t-22.5 -63v-94q0 -13 2 -93q2 -53 24 -90h-13q-12 0 -39 1.5t-34 1.5t-37.5 -1.5t-42.5 -1.5h-12q32 39 33 90q2 80 2 93
v368q0 27 -3 60q-8 74 -51 74q-31 0 -49 -36.5t-18 -108.5v-105l96 4l-30 -66h-66v-190q0 -40 4 -93q5 -47 37 -90h-10q-29 0 -49 1q-40 2 -42 2q-7 0 -37.5 -1.5t-43.5 -1.5h-11q32 45 33 90q2 80 2 93z" />
    <glyph glyph-name="ffj" unicode="ffj" horiz-adv-x="687" 
d="M295 182v115q0 44 -12.5 59.5t-49.5 15.5h-59v-190q0 -71 8 -111.5t33 -71.5h-10q-29 0 -49 1q-40 2 -42 2q-7 0 -37.5 -1.5t-43.5 -1.5h-11q16 24 24 56q8 29 10 55q1 16 1 72v147q0 30 -7.5 46.5t-30.5 33.5l7 7q19 19 25 43l7 23q2 6 5 31t5 31q18 96 60.5 147.5
t102.5 51.5q46 0 76 -11q6 -26 6 -60q0 -57 -31 -100q-32 58 -49 77.5t-35 19.5q-29 0 -29 -47q0 -3 2 -65q3 -47 3 -88v-35h121q6 83 11 110q22 96 75.5 147.5t132.5 51.5q82 0 134 -21q7 -25 7 -64q0 -73 -53 -123q-40 89 -59 116q-23 33 -52 33q-79 0 -79 -170v-80h115
q63 0 128 17q-5 -117 -5 -181v-137q0 -76 3 -142q-4 -98 -57 -169q-50 -69 -127 -86q33 58 49 111q15 49 15 122v250q0 51 -3 94q-2 32 -17.5 45.5t-52.5 13.5h-48v-190q0 -40 4 -93q5 -47 37 -90h-10q-29 0 -49 1q-40 2 -42 2q-7 0 -37.5 -1.5t-43.5 -1.5h-11q32 45 33 90
q2 80 2 93z" />
    <glyph glyph-name="ffk" unicode="ffk" horiz-adv-x="934" 
d="M295 182v115q0 44 -12.5 59.5t-49.5 15.5h-59v-190q0 -71 8 -111.5t33 -71.5h-10q-29 0 -49 1q-40 2 -42 2q-7 0 -37.5 -1.5t-43.5 -1.5h-11q16 24 24 56q8 29 10 55q1 16 1 72v147q0 30 -7.5 46.5t-30.5 33.5l7 7q19 19 25 43l7 23q2 6 5 31t5 31q18 96 60.5 147.5
t102.5 51.5q46 0 76 -11q6 -26 6 -60q0 -57 -31 -100q-32 58 -49 77.5t-35 19.5q-29 0 -29 -47q0 -3 2 -65q3 -47 3 -88v-35h121q6 83 11 110q46 199 203 199q64 0 96 -20q24 9 50 21q-5 -82 -5 -181v-381q0 -13 2 -93q2 -53 24 -90h-13q-12 0 -39 1.5t-34 1.5t-37.5 -1.5
t-42.5 -1.5h-12q32 39 33 90q2 80 2 93v368q0 27 -3 60q-8 74 -51 74q-31 0 -49 -36.5t-18 -108.5v-105l96 4l-30 -66h-66v-190q0 -40 4 -93q5 -47 37 -90h-10q-29 0 -49 1q-40 2 -42 2q-7 0 -37.5 -1.5t-43.5 -1.5h-11q32 45 33 90q2 80 2 93zM753 72l-94 166l49 48
q34 34 45.5 53.5t11.5 39.5q0 16 -23 54h12q8 0 35.5 -1.5t36.5 -1.5q22 0 41 1q38 2 43 2h13l-92 -94l-59 -59l118 -197q36 -60 56 -85q-20 -7 -37 -7q-109 0 -156 81z" />
    <glyph glyph-name="ffagrave" unicode="ff&#xe0;" horiz-adv-x="873" 
d="M412 469v-35q37 1 116 4l-30 -66h-86v-190q0 -71 8 -111.5t33 -71.5h-10q-29 0 -49 1q-40 2 -42 2q-7 0 -37.5 -1.5t-43.5 -1.5h-11q16 24 24 56q8 29 10 55q1 16 1 72v115q0 44 -12.5 59.5t-49.5 15.5h-59v-190q0 -71 8 -111.5t33 -71.5h-10q-29 0 -49 1q-40 2 -42 2
q-7 0 -37.5 -1.5t-43.5 -1.5h-11q16 24 24 56q8 29 10 55q1 16 1 72v147q0 30 -7.5 46.5t-30.5 33.5l7 7q19 19 25 43l7 23q2 6 5 31t5 31q18 96 60.5 147.5t102.5 51.5q46 0 76 -11q6 -26 6 -60q0 -57 -31 -100q-32 58 -49 77.5t-35 19.5q-29 0 -29 -47q0 -3 2 -65
q3 -47 3 -88v-35h121q3 69 11 110q19 96 61 147.5t102 51.5q46 0 76 -11q6 -26 6 -60q0 -57 -31 -100q-32 58 -49 77.5t-35 19.5q-29 0 -29 -47q0 -3 2 -65q3 -47 3 -88zM738 170v29q-28 -11 -46 -20q-66 -35 -66 -79q0 -17 10.5 -27.5t28.5 -10.5q30 0 51.5 29.5t21.5 78.5
zM738 253v25q0 40 -21 61q-21 22 -57 22q-63 0 -115 -40q0 57 40 92.5t106 35.5q85 0 128 -54q35 -44 35 -118v-79q0 -47 1 -68q2 -55 8 -77q7 -25 27 -58q-18 -3 -34 -3q-95 0 -113 78q-38 -86 -124 -86q-47 0 -76 28t-29 71q0 67 68 108q48 30 156 62zM584 706l133 43
l18 -268z" />
    <glyph glyph-name="ffacircumflex" unicode="ff&#xe2;" horiz-adv-x="873" 
d="M412 469v-35q37 1 116 4l-30 -66h-86v-190q0 -71 8 -111.5t33 -71.5h-10q-29 0 -49 1q-40 2 -42 2q-7 0 -37.5 -1.5t-43.5 -1.5h-11q16 24 24 56q8 29 10 55q1 16 1 72v115q0 44 -12.5 59.5t-49.5 15.5h-59v-190q0 -71 8 -111.5t33 -71.5h-10q-29 0 -49 1q-40 2 -42 2
q-7 0 -37.5 -1.5t-43.5 -1.5h-11q16 24 24 56q8 29 10 55q1 16 1 72v147q0 30 -7.5 46.5t-30.5 33.5l7 7q19 19 25 43l7 23q2 6 5 31t5 31q18 96 60.5 147.5t102.5 51.5q46 0 76 -11q6 -26 6 -60q0 -57 -31 -100q-32 58 -49 77.5t-35 19.5q-29 0 -29 -47q0 -3 2 -65
q3 -47 3 -88v-35h121q3 69 11 110q19 96 61 147.5t102 51.5q46 0 76 -11q6 -26 6 -60q0 -57 -31 -100q-32 58 -49 77.5t-35 19.5q-29 0 -29 -47q0 -3 2 -65q3 -47 3 -88zM738 170v29q-28 -11 -46 -20q-66 -35 -66 -79q0 -17 10.5 -27.5t28.5 -10.5q30 0 51.5 29.5t21.5 78.5
zM738 253v25q0 40 -21 61q-21 22 -57 22q-63 0 -115 -40q0 57 40 92.5t106 35.5q85 0 128 -54q35 -44 35 -118v-79q0 -47 1 -68q2 -55 8 -77q7 -25 27 -58q-18 -3 -34 -3q-95 0 -113 78q-38 -86 -124 -86q-47 0 -76 28t-29 71q0 67 68 108q48 30 156 62zM585 485l115 282
l115 -282l-115 87z" />
    <glyph glyph-name="ffatilde" unicode="ff&#xe3;" horiz-adv-x="873" 
d="M412 469v-35q37 1 116 4l-30 -66h-86v-190q0 -71 8 -111.5t33 -71.5h-10q-29 0 -49 1q-40 2 -42 2q-7 0 -37.5 -1.5t-43.5 -1.5h-11q16 24 24 56q8 29 10 55q1 16 1 72v115q0 44 -12.5 59.5t-49.5 15.5h-59v-190q0 -71 8 -111.5t33 -71.5h-10q-29 0 -49 1q-40 2 -42 2
q-7 0 -37.5 -1.5t-43.5 -1.5h-11q16 24 24 56q8 29 10 55q1 16 1 72v147q0 30 -7.5 46.5t-30.5 33.5l7 7q19 19 25 43l7 23q2 6 5 31t5 31q18 96 60.5 147.5t102.5 51.5q46 0 76 -11q6 -26 6 -60q0 -57 -31 -100q-32 58 -49 77.5t-35 19.5q-29 0 -29 -47q0 -3 2 -65
q3 -47 3 -88v-35h121q3 69 11 110q19 96 61 147.5t102 51.5q46 0 76 -11q6 -26 6 -60q0 -57 -31 -100q-32 58 -49 77.5t-35 19.5q-29 0 -29 -47q0 -3 2 -65q3 -47 3 -88zM738 170v29q-28 -11 -46 -20q-66 -35 -66 -79q0 -17 10.5 -27.5t28.5 -10.5q30 0 51.5 29.5t21.5 78.5
zM738 253v25q0 40 -21 61q-21 22 -57 22q-63 0 -115 -40q0 57 40 92.5t106 35.5q85 0 128 -54q35 -44 35 -118v-79q0 -47 1 -68q2 -55 8 -77q7 -25 27 -58q-18 -3 -34 -3q-95 0 -113 78q-38 -86 -124 -86q-47 0 -76 28t-29 71q0 67 68 108q48 30 156 62zM707 599
q-44 23 -66 23q-39 0 -79 -29v8q0 50 29 80t70 30q31 0 66 -19q44 -23 66 -23q39 0 79 29v-8q0 -50 -29 -80t-70 -30q-31 0 -66 19z" />
    <glyph glyph-name="ffaring" unicode="ff&#xe5;" horiz-adv-x="873" 
d="M412 469v-35q37 1 116 4l-30 -66h-86v-190q0 -71 8 -111.5t33 -71.5h-10q-29 0 -49 1q-40 2 -42 2q-7 0 -37.5 -1.5t-43.5 -1.5h-11q16 24 24 56q8 29 10 55q1 16 1 72v115q0 44 -12.5 59.5t-49.5 15.5h-59v-190q0 -71 8 -111.5t33 -71.5h-10q-29 0 -49 1q-40 2 -42 2
q-7 0 -37.5 -1.5t-43.5 -1.5h-11q16 24 24 56q8 29 10 55q1 16 1 72v147q0 30 -7.5 46.5t-30.5 33.5l7 7q19 19 25 43l7 23q2 6 5 31t5 31q18 96 60.5 147.5t102.5 51.5q46 0 76 -11q6 -26 6 -60q0 -57 -31 -100q-32 58 -49 77.5t-35 19.5q-29 0 -29 -47q0 -3 2 -65
q3 -47 3 -88v-35h121q3 69 11 110q19 96 61 147.5t102 51.5q46 0 76 -11q6 -26 6 -60q0 -57 -31 -100q-32 58 -49 77.5t-35 19.5q-29 0 -29 -47q0 -3 2 -65q3 -47 3 -88zM738 170v29q-28 -11 -46 -20q-66 -35 -66 -79q0 -17 10.5 -27.5t28.5 -10.5q30 0 51.5 29.5t21.5 78.5
zM738 253v25q0 40 -21 61q-21 22 -57 22q-63 0 -115 -40q0 57 40 92.5t106 35.5q85 0 128 -54q35 -44 35 -118v-79q0 -47 1 -68q2 -55 8 -77q7 -25 27 -58q-18 -3 -34 -3q-95 0 -113 78q-38 -86 -124 -86q-47 0 -76 28t-29 71q0 67 68 108q48 30 156 62zM576 643q0 51 36 88
q37 37 88 37t88 -37t37 -88t-37 -88q-38 -36 -88 -36q-52 0 -88 36t-36 88zM699 588q23 0 38.5 15.5t15.5 38.5t-15.5 39.5t-38.5 16.5q-22 0 -37 -16.5t-15 -39.5t15 -38.5t37 -15.5z" />
    <glyph glyph-name="ffedieresis" unicode="ff&#xeb;" horiz-adv-x="949" 
d="M412 469v-35q37 1 116 4l-30 -66h-86v-190q0 -71 8 -111.5t33 -71.5h-10q-29 0 -49 1q-40 2 -42 2q-7 0 -37.5 -1.5t-43.5 -1.5h-11q16 24 24 56q8 29 10 55q1 16 1 72v115q0 44 -12.5 59.5t-49.5 15.5h-59v-190q0 -71 8 -111.5t33 -71.5h-10q-29 0 -49 1q-40 2 -42 2
q-7 0 -37.5 -1.5t-43.5 -1.5h-11q16 24 24 56q8 29 10 55q1 16 1 72v147q0 30 -7.5 46.5t-30.5 33.5l7 7q19 19 25 43l7 23q2 6 5 31t5 31q18 96 60.5 147.5t102.5 51.5q46 0 76 -11q6 -26 6 -60q0 -57 -31 -100q-32 58 -49 77.5t-35 19.5q-29 0 -29 -47q0 -3 2 -65
q3 -47 3 -88v-35h121q3 69 11 110q19 96 61 147.5t102 51.5q46 0 76 -11q6 -26 6 -60q0 -57 -31 -100q-32 58 -49 77.5t-35 19.5q-29 0 -29 -47q0 -3 2 -65q3 -47 3 -88zM516 208q0 105 65 175q66 69 161 69q85 0 137 -49t52 -126q0 -13 -2 -29h-297q-1 -4 -1 -14
q0 -65 34.5 -105.5t91.5 -40.5q83 0 159 87q2 -16 2 -24q0 -69 -51 -119q-51 -48 -125 -48q-98 0 -162 66q-64 65 -64 158zM638 300h171q-3 94 -75 94q-34 0 -60.5 -26t-35.5 -68zM736 651l-82 -82l-82 82l82 82zM907 651l-80 -82l-82 82l82 82z" />
    <glyph glyph-name="ffiacute" unicode="ff&#xed;" horiz-adv-x="704" 
d="M295 182v115q0 44 -12.5 59.5t-49.5 15.5h-59v-190q0 -71 8 -111.5t33 -71.5h-10q-29 0 -49 1q-40 2 -42 2q-7 0 -37.5 -1.5t-43.5 -1.5h-11q16 24 24 56q8 29 10 55q1 16 1 72v147q0 30 -7.5 46.5t-30.5 33.5l7 7q19 19 25 43l7 23q2 6 5 31t5 31q18 96 60.5 147.5
t102.5 51.5q46 0 76 -11q6 -26 6 -60q0 -57 -31 -100q-32 58 -49 77.5t-35 19.5q-29 0 -29 -47q0 -3 2 -65q3 -47 3 -88v-35h121q6 93 10 110q18 96 60.5 147.5t102.5 51.5q46 0 76 -11q6 -26 6 -60q0 -57 -31 -100q-32 58 -49 77.5t-35 19.5q-29 0 -29 -47q0 -10 2 -72
l3 -81l1 -35h115q63 0 128 17q-5 -117 -5 -181v-88q0 -13 2 -93q2 -53 24 -90h-13q-12 0 -39 1.5t-34 1.5t-37.5 -1.5t-42.5 -1.5h-12q32 39 33 90q2 80 2 93v37q0 51 -3 94q-2 32 -17.5 45.5t-52.5 13.5h-48v-190q0 -40 4 -93q5 -47 37 -90h-10q-29 0 -49 1q-40 2 -42 2
q-7 0 -37.5 -1.5t-43.5 -1.5h-11q32 45 33 90q2 80 2 93zM723 706l-151 -225l19 268z" />
    <glyph glyph-name="ffigrave" unicode="ff&#xec;" horiz-adv-x="704" 
d="M295 182v115q0 44 -12.5 59.5t-49.5 15.5h-59v-190q0 -71 8 -111.5t33 -71.5h-10q-29 0 -49 1q-40 2 -42 2q-7 0 -37.5 -1.5t-43.5 -1.5h-11q16 24 24 56q8 29 10 55q1 16 1 72v147q0 30 -7.5 46.5t-30.5 33.5l7 7q19 19 25 43l7 23q2 6 5 31t5 31q18 96 60.5 147.5
t102.5 51.5q46 0 76 -11q6 -26 6 -60q0 -57 -31 -100q-32 58 -49 77.5t-35 19.5q-29 0 -29 -47q0 -3 2 -65q3 -47 3 -88v-35h121q6 83 11 110q45 199 209 199q64 0 112 -15l12 -247l-94 134q-28 39 -40 50.5t-26 11.5q-67 0 -67 -153v-90h115q63 0 128 17q-5 -117 -5 -181
v-88q0 -13 2 -93q2 -53 24 -90h-13q-12 0 -39 1.5t-34 1.5t-37.5 -1.5t-42.5 -1.5h-12q32 39 33 90q2 80 2 93v37q0 51 -3 94q-2 32 -17.5 45.5t-52.5 13.5h-48v-190q0 -40 4 -93q5 -47 37 -90h-10q-29 0 -49 1q-40 2 -42 2q-7 0 -37.5 -1.5t-43.5 -1.5h-11q32 45 33 90
q2 80 2 93z" />
    <glyph glyph-name="fficircumflex" unicode="ff&#xee;" horiz-adv-x="754" 
d="M412 469v-35q37 1 116 4l-30 -66h-86v-190q0 -71 8 -111.5t33 -71.5h-10q-29 0 -49 1q-40 2 -42 2q-7 0 -37.5 -1.5t-43.5 -1.5h-11q16 24 24 56q8 29 10 55q1 16 1 72v115q0 44 -12.5 59.5t-49.5 15.5h-59v-190q0 -71 8 -111.5t33 -71.5h-10q-29 0 -49 1q-40 2 -42 2
q-7 0 -37.5 -1.5t-43.5 -1.5h-11q16 24 24 56q8 29 10 55q1 16 1 72v147q0 30 -7.5 46.5t-30.5 33.5l7 7q19 19 25 43l7 23q2 6 5 31t5 31q18 96 60.5 147.5t102.5 51.5q46 0 76 -11q6 -26 6 -60q0 -57 -31 -100q-32 58 -49 77.5t-35 19.5q-29 0 -29 -47q0 -3 2 -65
q3 -47 3 -88v-35h121q3 69 11 110q19 96 61 147.5t102 51.5q46 0 76 -11q6 -26 6 -60q0 -57 -31 -100q-32 58 -49 77.5t-35 19.5q-29 0 -29 -47q0 -3 2 -65q3 -47 3 -88zM700 263v-81q0 -13 2 -93q2 -53 24 -90h-13q-12 0 -39 1.5t-34 1.5t-37.5 -1.5t-42.5 -1.5h-12
q32 39 33 90q2 80 2 93v37q0 57 -3 86q-3 28 -11 43t-28 32q93 33 164 64q-5 -93 -5 -181zM530 485l115 282l115 -282l-115 87z" />
    <glyph glyph-name="ffidieresis" unicode="ff&#xef;" horiz-adv-x="748" 
d="M295 182v115q0 44 -12.5 59.5t-49.5 15.5h-59v-190q0 -71 8 -111.5t33 -71.5h-10q-29 0 -49 1q-40 2 -42 2q-7 0 -37.5 -1.5t-43.5 -1.5h-11q16 24 24 56q8 29 10 55q1 16 1 72v147q0 30 -7.5 46.5t-30.5 33.5l7 7q19 19 25 43l7 23q2 6 5 31t5 31q18 96 60.5 147.5
t102.5 51.5q46 0 76 -11q6 -26 6 -60q0 -57 -31 -100q-32 58 -49 77.5t-35 19.5q-29 0 -29 -47q0 -3 2 -65q3 -47 3 -88v-35h121q6 93 10 110q42 199 175 199q36 0 67 -19q34 -20 82 -73l-82 -82l-77 82q-18 18 -34 18q-29 0 -29 -47q0 -3 2 -65q3 -47 3 -88v-35q37 1 116 4
l-30 -66h-86v-190q0 -40 4 -93q5 -47 37 -90h-10q-29 0 -49 1q-40 2 -42 2q-7 0 -37.5 -1.5t-43.5 -1.5h-11q32 45 33 90q2 80 2 93zM694 263v-81q0 -13 2 -93q2 -53 24 -90h-13q-12 0 -39 1.5t-34 1.5t-37.5 -1.5t-42.5 -1.5h-12q32 39 33 90q2 80 2 93v37q0 57 -3 86
q-3 28 -11 43t-28 32q93 33 164 64q-5 -93 -5 -181zM800 651l-80 -82l-82 82l82 82z" />
    <glyph glyph-name="ffodieresis" unicode="ff&#xf6;" horiz-adv-x="1007" 
d="M412 469v-35q37 1 116 4l-30 -66h-86v-190q0 -71 8 -111.5t33 -71.5h-10q-29 0 -49 1q-40 2 -42 2q-7 0 -37.5 -1.5t-43.5 -1.5h-11q16 24 24 56q8 29 10 55q1 16 1 72v115q0 44 -12.5 59.5t-49.5 15.5h-59v-190q0 -71 8 -111.5t33 -71.5h-10q-29 0 -49 1q-40 2 -42 2
q-7 0 -37.5 -1.5t-43.5 -1.5h-11q16 24 24 56q8 29 10 55q1 16 1 72v147q0 30 -7.5 46.5t-30.5 33.5l7 7q19 19 25 43l7 23q2 6 5 31t5 31q18 96 60.5 147.5t102.5 51.5q46 0 76 -11q6 -26 6 -60q0 -57 -31 -100q-32 58 -49 77.5t-35 19.5q-29 0 -29 -47q0 -3 2 -65
q3 -47 3 -88v-35h121q3 69 11 110q19 96 61 147.5t102 51.5q46 0 76 -11q6 -26 6 -60q0 -57 -31 -100q-32 58 -49 77.5t-35 19.5q-29 0 -29 -47q0 -3 2 -65q3 -47 3 -88zM751 393q-50 0 -79.5 -44t-29.5 -124q0 -87 31.5 -135.5t86.5 -48.5q49 0 77.5 44.5t28.5 124.5
q0 83 -34 132q-33 51 -81 51zM514 217q0 97 69 165q69 69 171 69q106 0 173 -67q68 -68 68 -167q0 -98 -68 -166t-168 -68q-109 0 -177 67q-68 68 -68 167zM750 651l-82 -82l-82 82l82 82zM921 651l-80 -82l-82 82l82 82z" />
    <glyph glyph-name="ffotilde" unicode="ff&#xf5;" horiz-adv-x="1007" 
d="M412 469v-35q37 1 116 4l-30 -66h-86v-190q0 -71 8 -111.5t33 -71.5h-10q-29 0 -49 1q-40 2 -42 2q-7 0 -37.5 -1.5t-43.5 -1.5h-11q16 24 24 56q8 29 10 55q1 16 1 72v115q0 44 -12.5 59.5t-49.5 15.5h-59v-190q0 -71 8 -111.5t33 -71.5h-10q-29 0 -49 1q-40 2 -42 2
q-7 0 -37.5 -1.5t-43.5 -1.5h-11q16 24 24 56q8 29 10 55q1 16 1 72v147q0 30 -7.5 46.5t-30.5 33.5l7 7q19 19 25 43l7 23q2 6 5 31t5 31q18 96 60.5 147.5t102.5 51.5q46 0 76 -11q6 -26 6 -60q0 -57 -31 -100q-32 58 -49 77.5t-35 19.5q-29 0 -29 -47q0 -3 2 -65
q3 -47 3 -88v-35h121q3 69 11 110q19 96 61 147.5t102 51.5q46 0 76 -11q6 -26 6 -60q0 -57 -31 -100q-32 58 -49 77.5t-35 19.5q-29 0 -29 -47q0 -3 2 -65q3 -47 3 -88zM751 393q-50 0 -79.5 -44t-29.5 -124q0 -87 31.5 -135.5t86.5 -48.5q49 0 77.5 44.5t28.5 124.5
q0 83 -34 132q-33 51 -81 51zM514 217q0 97 69 165q69 69 171 69q106 0 173 -67q68 -68 68 -167q0 -98 -68 -166t-168 -68q-109 0 -177 67q-68 68 -68 167zM741 599q-44 23 -66 23q-39 0 -79 -29v8q0 50 29 80t70 30q31 0 66 -19q44 -23 66 -23q39 0 79 29v-8q0 -50 -29 -80
t-70 -30q-31 0 -66 19z" />
    <glyph glyph-name="ffutilde" unicode="ff&#x169;" horiz-adv-x="1008" 
d="M412 469v-35q37 1 116 4l-30 -66h-86v-190q0 -71 8 -111.5t33 -71.5h-10q-29 0 -49 1q-40 2 -42 2q-7 0 -37.5 -1.5t-43.5 -1.5h-11q16 24 24 56q8 29 10 55q1 16 1 72v115q0 44 -12.5 59.5t-49.5 15.5h-59v-190q0 -71 8 -111.5t33 -71.5h-10q-29 0 -49 1q-40 2 -42 2
q-7 0 -37.5 -1.5t-43.5 -1.5h-11q16 24 24 56q8 29 10 55q1 16 1 72v147q0 30 -7.5 46.5t-30.5 33.5l7 7q19 19 25 43l7 23q2 6 5 31t5 31q18 96 60.5 147.5t102.5 51.5q46 0 76 -11q6 -26 6 -60q0 -57 -31 -100q-32 58 -49 77.5t-35 19.5q-29 0 -29 -47q0 -3 2 -65
q3 -47 3 -88v-35h121q3 69 11 110q19 96 61 147.5t102 51.5q46 0 76 -11q6 -26 6 -60q0 -57 -31 -100q-32 58 -49 77.5t-35 19.5q-29 0 -29 -47q0 -3 2 -65q3 -47 3 -88zM952 257v-50q0 -57 3 -86q5 -47 39 -75l-153 -57l-3 87q-31 -50 -59.5 -72t-71.5 -22q-73 0 -110 60
q-23 38 -23 97v100q0 63 -3 95q-3 44 -35 98q111 2 162 5q-7 -111 -7 -180v-115q0 -72 63 -72q38 0 59.5 23.5t21.5 63.5v82q0 63 -3 95q-3 44 -35 98q111 2 162 5q-7 -111 -7 -180zM756 599q-44 23 -66 23q-39 0 -79 -29v8q0 50 29 80t70 30q31 0 66 -19q44 -23 66 -23
q39 0 79 29v-8q0 -50 -29 -80t-70 -30q-31 0 -66 19z" />
    <glyph glyph-name="ffscaron" unicode="ff&#x161;" horiz-adv-x="837" 
d="M412 469v-35q37 1 116 4l-30 -66h-86v-190q0 -71 8 -111.5t33 -71.5h-10q-29 0 -49 1q-40 2 -42 2q-7 0 -37.5 -1.5t-43.5 -1.5h-11q16 24 24 56q8 29 10 55q1 16 1 72v115q0 44 -12.5 59.5t-49.5 15.5h-59v-190q0 -71 8 -111.5t33 -71.5h-10q-29 0 -49 1q-40 2 -42 2
q-7 0 -37.5 -1.5t-43.5 -1.5h-11q16 24 24 56q8 29 10 55q1 16 1 72v147q0 30 -7.5 46.5t-30.5 33.5l7 7q19 19 25 43l7 23q2 6 5 31t5 31q18 96 60.5 147.5t102.5 51.5q46 0 76 -11q6 -26 6 -60q0 -57 -31 -100q-32 58 -49 77.5t-35 19.5q-29 0 -29 -47q0 -3 2 -65
q3 -47 3 -88v-35h121q3 69 11 110q19 96 61 147.5t102 51.5q46 0 76 -11q6 -26 6 -60q0 -57 -31 -100q-32 58 -49 77.5t-35 19.5q-29 0 -29 -47q0 -3 2 -65q3 -47 3 -88zM669 36q24 0 37.5 13.5t13.5 34.5q0 24 -17.5 43t-62.5 44q-63 35 -90.5 68.5t-27.5 75.5q0 57 44 96
q45 39 107 39q71 0 126 -24q8 -34 8 -58q0 -54 -27 -97q-55 127 -113 127q-21 0 -33.5 -13t-12.5 -33q0 -23 20 -43.5t74 -51.5q60 -35 84.5 -67t24.5 -72q0 -62 -46 -98.5t-119 -36.5q-74 0 -134 23q-8 43 -8 63q0 59 24 105q34 -73 62.5 -105.5t65.5 -32.5zM667 680
l115 87l-115 -282l-115 282z" />
    <glyph glyph-name="ffydieresis" unicode="ff&#xff;" horiz-adv-x="988" 
d="M412 469v-35q37 1 116 4l-30 -66h-86v-190q0 -71 8 -111.5t33 -71.5h-10q-29 0 -49 1q-40 2 -42 2q-7 0 -37.5 -1.5t-43.5 -1.5h-11q16 24 24 56q8 29 10 55q1 16 1 72v115q0 44 -12.5 59.5t-49.5 15.5h-59v-190q0 -71 8 -111.5t33 -71.5h-10q-29 0 -49 1q-40 2 -42 2
q-7 0 -37.5 -1.5t-43.5 -1.5h-11q16 24 24 56q8 29 10 55q1 16 1 72v147q0 30 -7.5 46.5t-30.5 33.5l7 7q19 19 25 43l7 23q2 6 5 31t5 31q18 96 60.5 147.5t102.5 51.5q46 0 76 -11q6 -26 6 -60q0 -57 -31 -100q-32 58 -49 77.5t-35 19.5q-29 0 -29 -47q0 -3 2 -65
q3 -47 3 -88v-35h121q3 69 11 110q19 96 61 147.5t102 51.5q46 0 76 -11q6 -26 6 -60q0 -57 -31 -100q-32 58 -49 77.5t-35 19.5q-29 0 -29 -47q0 -3 2 -65q3 -47 3 -88zM702 -100l32 75l-116 276q-2 5 -18.5 45t-24.5 56q-5 10 -18 39t-21 42h12q2 0 44 -2q21 -1 46 -1
q10 0 39 1.5t37 1.5h13q-19 -42 -19 -66q0 -30 32 -114l53 -135l53 139q22 58 22 97t-21 79h12q9 0 31.5 -1.5t27.5 -1.5t28 1.5t32 1.5h15q-20 -33 -50 -93q-21 -44 -39 -89l-149 -373q-30 -75 -65 -107.5t-84 -32.5q-33 0 -72 17q-7 24 -7 56q0 36 18 78q44 -43 96 -43
q39 0 61 54zM782 651l-82 -82l-82 82l82 82zM953 651l-80 -82l-82 82l82 82z" />
    <glyph glyph-name="fflcaron" unicode="ff&#x13e;" horiz-adv-x="746" 
d="M296 182l-1 115q0 44 -12.5 59.5t-49.5 15.5h-59v-190q0 -71 8 -111.5t33 -71.5h-10q-29 0 -49 1q-40 2 -42 2q-7 0 -37.5 -1.5t-43.5 -1.5h-11q16 24 24 56q8 29 10 55q1 16 1 72v147q0 30 -7.5 46.5t-30.5 33.5l7 7q19 19 25 43l7 23q2 6 5 31t5 31q18 96 60.5 147.5
t102.5 51.5q46 0 76 -11q6 -26 6 -60q0 -57 -31 -100q-32 58 -49 77.5t-35 19.5q-29 0 -29 -47q0 -3 2 -65q3 -47 3 -88v-35h121q6 83 11 110q48 199 204 199q64 0 96 -20q24 9 50 21q-5 -82 -5 -181v-381q0 -13 2 -93q1 -53 24 -90h-13q-12 0 -39 1.5t-34 1.5t-37.5 -1.5
t-42.5 -1.5h-12q31 39 33 90q2 80 2 93v368q0 27 -3 60q-8 74 -51 74q-31 0 -49 -36.5t-18 -108.5v-105l96 4l-30 -66h-66v-190q0 -40 4 -93q5 -47 37 -90h-10q-29 0 -49 1q-40 2 -42 2q-7 0 -37.5 -1.5t-43.5 -1.5h-11q31 45 33 90q2 80 2 93zM854 720l-139 -196l-2 241z
" />
    <glyph glyph-name="ffzdotaccent" unicode="ff&#x17c;" horiz-adv-x="912" 
d="M412 469v-35q37 1 116 4l-30 -66h-86v-190q0 -71 8 -111.5t33 -71.5h-10q-29 0 -49 1q-40 2 -42 2q-7 0 -37.5 -1.5t-43.5 -1.5h-11q16 24 24 56q8 29 10 55q1 16 1 72v115q0 44 -12.5 59.5t-49.5 15.5h-59v-190q0 -71 8 -111.5t33 -71.5h-10q-29 0 -49 1q-40 2 -42 2
q-7 0 -37.5 -1.5t-43.5 -1.5h-11q16 24 24 56q8 29 10 55q1 16 1 72v147q0 30 -7.5 46.5t-30.5 33.5l7 7q19 19 25 43l7 23q2 6 5 31t5 31q18 96 60.5 147.5t102.5 51.5q46 0 76 -11q6 -26 6 -60q0 -57 -31 -100q-32 58 -49 77.5t-35 19.5q-29 0 -29 -47q0 -3 2 -65
q3 -47 3 -88v-35h121q3 69 11 110q19 96 61 147.5t102 51.5q46 0 76 -11q6 -26 6 -60q0 -57 -31 -100q-32 58 -49 77.5t-35 19.5q-29 0 -29 -47q0 -3 2 -65q3 -47 3 -88zM659 431h86q74 0 170 3l-77 -124l-164 -258q71 0 96 4q36 4 60 36q28 36 63 111q8 -40 8 -92
q0 -55 -11 -116q-31 1 -65.5 2.5t-49 2t-18.5 0.5h-110q-38 0 -144 -2l89 135l159 245h-16q-72 0 -103 -10q-46 -15 -88 -109q-11 52 -11 89q0 43 13 88q55 -5 113 -5zM811 659l-98 -97l-97 97l97 98z" />
    <glyph glyph-name="ffabreve" unicode="ff&#x103;" horiz-adv-x="901" 
d="M412 469v-35q37 1 116 4l-30 -66h-86v-190q0 -71 8 -111.5t33 -71.5h-10q-29 0 -49 1q-40 2 -42 2q-7 0 -37.5 -1.5t-43.5 -1.5h-11q16 24 24 56q8 29 10 55q1 16 1 72v115q0 44 -12.5 59.5t-49.5 15.5h-59v-190q0 -71 8 -111.5t33 -71.5h-10q-29 0 -49 1q-40 2 -42 2
q-7 0 -37.5 -1.5t-43.5 -1.5h-11q16 24 24 56q8 29 10 55q1 16 1 72v147q0 30 -7.5 46.5t-30.5 33.5l7 7q19 19 25 43l7 23q2 6 5 31t5 31q18 96 60.5 147.5t102.5 51.5q46 0 76 -11q6 -26 6 -60q0 -57 -31 -100q-32 58 -49 77.5t-35 19.5q-29 0 -29 -47q0 -3 2 -65
q3 -47 3 -88v-35h121q3 69 11 110q19 96 61 147.5t102 51.5q46 0 76 -11q6 -26 6 -60q0 -57 -31 -100q-32 58 -49 77.5t-35 19.5q-29 0 -29 -47q0 -3 2 -65q3 -47 3 -88zM739 170v29q-28 -11 -46 -20q-66 -35 -66 -79q0 -17 10.5 -27.5t28.5 -10.5q30 0 51.5 29.5t21.5 78.5
zM739 253v25q0 40 -21 61q-21 22 -57 22q-63 0 -115 -40q0 57 40 92.5t106 35.5q84 0 128 -54q35 -44 35 -118v-79q0 -47 1 -68q2 -55 8 -77q7 -25 27 -58q-18 -3 -34 -3q-95 0 -113 78q-38 -86 -124 -86q-47 0 -76 28t-29 71q0 67 68 108q48 30 156 62zM574 681q0 33 11 72
q41 -138 126 -138t126 138q11 -39 11 -72q0 -73 -37.5 -119.5t-99.5 -46.5t-99.5 46.5t-37.5 119.5z" />
    <glyph glyph-name="fflacute" unicode="ff&#x13a;" horiz-adv-x="700" 
d="M296 182l-1 115q0 44 -12.5 59.5t-49.5 15.5h-59v-190q0 -71 8 -111.5t33 -71.5h-10q-29 0 -49 1q-40 2 -42 2q-7 0 -37.5 -1.5t-43.5 -1.5h-11q16 24 24 56q8 29 10 55q1 16 1 72v147q0 30 -7.5 46.5t-30.5 33.5l7 7q19 19 25 43l7 23q2 6 5 31t5 31q18 96 60.5 147.5
t102.5 51.5q46 0 76 -11q6 -26 6 -60q0 -57 -31 -100q-32 58 -49 77.5t-35 19.5q-29 0 -29 -47q0 -3 2 -65q3 -47 3 -88v-35h121q6 83 11 110q48 199 204 199q64 0 96 -20q24 9 50 21q-5 -82 -5 -181v-381q0 -13 2 -93q1 -53 24 -90h-13q-12 0 -39 1.5t-34 1.5t-37.5 -1.5
t-42.5 -1.5h-12q31 39 33 90q2 80 2 93v368q0 27 -3 60q-8 74 -51 74q-31 0 -49 -36.5t-18 -108.5v-105l96 4l-30 -66h-66v-190q0 -40 4 -93q5 -47 37 -90h-10q-29 0 -49 1q-40 2 -42 2q-7 0 -37.5 -1.5t-43.5 -1.5h-11q31 45 33 90q2 80 2 93zM790 809l-265 -54l198 175z
" />
    <glyph glyph-name="ffccaron" unicode="ff&#x10d;" horiz-adv-x="926" 
d="M412 469v-35q37 1 116 4l-30 -66h-86v-190q0 -71 8 -111.5t33 -71.5h-10q-29 0 -49 1q-40 2 -42 2q-7 0 -37.5 -1.5t-43.5 -1.5h-11q16 24 24 56q8 29 10 55q1 16 1 72v115q0 44 -12.5 59.5t-49.5 15.5h-59v-190q0 -71 8 -111.5t33 -71.5h-10q-29 0 -49 1q-40 2 -42 2
q-7 0 -37.5 -1.5t-43.5 -1.5h-11q16 24 24 56q8 29 10 55q1 16 1 72v147q0 30 -7.5 46.5t-30.5 33.5l7 7q19 19 25 43l7 23q2 6 5 31t5 31q18 96 60.5 147.5t102.5 51.5q46 0 76 -11q6 -26 6 -60q0 -57 -31 -100q-32 58 -49 77.5t-35 19.5q-29 0 -29 -47q0 -3 2 -65
q3 -47 3 -88v-35h121q3 69 11 110q19 96 61 147.5t102 51.5q46 0 76 -11q6 -26 6 -60q0 -57 -31 -100q-32 58 -49 77.5t-35 19.5q-29 0 -29 -47q0 -3 2 -65q3 -47 3 -88zM736 391q-47 0 -76.5 -40t-29.5 -110t35 -112t95 -42q41 0 74.5 19.5t71.5 62.5q0 -88 -46 -137
t-125 -49q-97 0 -161 66q-64 65 -64 158q0 106 69 175q71 69 168 69q92 0 153 -34q5 -35 5 -64q0 -68 -43 -123q-35 87 -63 124t-63 37zM739 680l115 87l-115 -282l-115 282z" />
    <glyph glyph-name="ffecaron" unicode="ff&#x11b;" horiz-adv-x="949" 
d="M412 469v-35q37 1 116 4l-30 -66h-86v-190q0 -71 8 -111.5t33 -71.5h-10q-29 0 -49 1q-40 2 -42 2q-7 0 -37.5 -1.5t-43.5 -1.5h-11q16 24 24 56q8 29 10 55q1 16 1 72v115q0 44 -12.5 59.5t-49.5 15.5h-59v-190q0 -71 8 -111.5t33 -71.5h-10q-29 0 -49 1q-40 2 -42 2
q-7 0 -37.5 -1.5t-43.5 -1.5h-11q16 24 24 56q8 29 10 55q1 16 1 72v147q0 30 -7.5 46.5t-30.5 33.5l7 7q19 19 25 43l7 23q2 6 5 31t5 31q18 96 60.5 147.5t102.5 51.5q46 0 76 -11q6 -26 6 -60q0 -57 -31 -100q-32 58 -49 77.5t-35 19.5q-29 0 -29 -47q0 -3 2 -65
q3 -47 3 -88v-35h121q3 69 11 110q19 96 61 147.5t102 51.5q46 0 76 -11q6 -26 6 -60q0 -57 -31 -100q-32 58 -49 77.5t-35 19.5q-29 0 -29 -47q0 -3 2 -65q3 -47 3 -88zM516 208q0 105 65 175q66 69 161 69q85 0 137 -49t52 -126q0 -13 -2 -29h-297q-1 -4 -1 -14
q0 -65 34.5 -105.5t91.5 -40.5q83 0 159 87q2 -16 2 -24q0 -69 -51 -119q-51 -48 -125 -48q-98 0 -162 66q-64 65 -64 158zM638 300h171q-3 94 -75 94q-34 0 -60.5 -26t-35.5 -68zM736 680l115 87l-115 -282l-115 282z" />
    <glyph glyph-name="ffrcaron" unicode="ff&#x159;" horiz-adv-x="850" 
d="M412 469v-35q37 1 116 4l-30 -66h-86v-190q0 -71 8 -111.5t33 -71.5h-10q-29 0 -49 1q-40 2 -42 2q-7 0 -37.5 -1.5t-43.5 -1.5h-11q16 24 24 56q8 29 10 55q1 16 1 72v115q0 44 -12.5 59.5t-49.5 15.5h-59v-190q0 -71 8 -111.5t33 -71.5h-10q-29 0 -49 1q-40 2 -42 2
q-7 0 -37.5 -1.5t-43.5 -1.5h-11q16 24 24 56q8 29 10 55q1 16 1 72v147q0 30 -7.5 46.5t-30.5 33.5l7 7q19 19 25 43l7 23q2 6 5 31t5 31q18 96 60.5 147.5t102.5 51.5q46 0 76 -11q6 -26 6 -60q0 -57 -31 -100q-32 58 -49 77.5t-35 19.5q-29 0 -29 -47q0 -3 2 -65
q3 -47 3 -88v-35h121q3 69 11 110q19 96 61 147.5t102 51.5q46 0 76 -11q6 -26 6 -60q0 -57 -31 -100q-32 58 -49 77.5t-35 19.5q-29 0 -29 -47q0 -3 2 -65q3 -47 3 -88zM680 218v-36q0 -13 2 -93q2 -53 24 -90h-13q-12 0 -39 1.5t-34 1.5t-37.5 -1.5t-42.5 -1.5h-12
q32 39 33 90q2 80 2 93v37q0 57 -3 86q-4 53 -39 75q83 28 164 64q-7 -45 -7 -105q42 112 114 112q33 0 58 -11q5 -25 5 -59q0 -69 -36 -115q-18 37 -40.5 57.5t-44.5 20.5q-13 2 -24.5 -9t-20.5 -41t-9 -76zM711 680l115 87l-115 -282l-115 282z" />
    <glyph glyph-name="ffamacron" unicode="ff&#x101;" horiz-adv-x="900" 
d="M412 469v-35q37 1 116 4l-30 -66h-86v-190q0 -71 8 -111.5t33 -71.5h-10q-29 0 -49 1q-40 2 -42 2q-7 0 -37.5 -1.5t-43.5 -1.5h-11q16 24 24 56q8 29 10 55q1 16 1 72v115q0 44 -12.5 59.5t-49.5 15.5h-59v-190q0 -71 8 -111.5t33 -71.5h-10q-29 0 -49 1q-40 2 -42 2
q-7 0 -37.5 -1.5t-43.5 -1.5h-11q16 24 24 56q8 29 10 55q1 16 1 72v147q0 30 -7.5 46.5t-30.5 33.5l7 7q19 19 25 43l7 23q2 6 5 31t5 31q18 96 60.5 147.5t102.5 51.5q46 0 76 -11q6 -26 6 -60q0 -57 -31 -100q-32 58 -49 77.5t-35 19.5q-29 0 -29 -47q0 -3 2 -65
q3 -47 3 -88v-35h121q3 69 11 110q19 96 61 147.5t102 51.5q46 0 76 -11q6 -26 6 -60q0 -57 -31 -100q-32 58 -49 77.5t-35 19.5q-29 0 -29 -47q0 -3 2 -65q3 -47 3 -88zM738 170v29q-28 -11 -46 -20q-66 -35 -66 -79q0 -17 10.5 -27.5t28.5 -10.5q30 0 51.5 29.5t21.5 78.5
zM738 253v25q0 40 -21 61q-21 22 -57 22q-63 0 -115 -40q0 57 40 92.5t106 35.5q85 0 128 -54q35 -44 35 -118v-79q0 -47 1 -68q2 -55 8 -77q7 -25 27 -58q-18 -3 -34 -3q-95 0 -113 78q-38 -86 -124 -86q-47 0 -76 28t-29 71q0 67 68 108q48 30 156 62zM861 606h-283v76
h283v-76z" />
    <glyph glyph-name="ffemacron" unicode="ff&#x113;" horiz-adv-x="949" 
d="M412 469v-35q37 1 116 4l-30 -66h-86v-190q0 -71 8 -111.5t33 -71.5h-10q-29 0 -49 1q-40 2 -42 2q-7 0 -37.5 -1.5t-43.5 -1.5h-11q16 24 24 56q8 29 10 55q1 16 1 72v115q0 44 -12.5 59.5t-49.5 15.5h-59v-190q0 -71 8 -111.5t33 -71.5h-10q-29 0 -49 1q-40 2 -42 2
q-7 0 -37.5 -1.5t-43.5 -1.5h-11q16 24 24 56q8 29 10 55q1 16 1 72v147q0 30 -7.5 46.5t-30.5 33.5l7 7q19 19 25 43l7 23q2 6 5 31t5 31q18 96 60.5 147.5t102.5 51.5q46 0 76 -11q6 -26 6 -60q0 -57 -31 -100q-32 58 -49 77.5t-35 19.5q-29 0 -29 -47q0 -3 2 -65
q3 -47 3 -88v-35h121q3 69 11 110q19 96 61 147.5t102 51.5q46 0 76 -11q6 -26 6 -60q0 -57 -31 -100q-32 58 -49 77.5t-35 19.5q-29 0 -29 -47q0 -3 2 -65q3 -47 3 -88zM516 208q0 105 65 175q66 69 161 69q85 0 137 -49t52 -126q0 -13 -2 -29h-297q-1 -4 -1 -14
q0 -65 34.5 -105.5t91.5 -40.5q83 0 159 87q2 -16 2 -24q0 -69 -51 -119q-51 -48 -125 -48q-98 0 -162 66q-64 65 -64 158zM638 300h171q-3 94 -75 94q-34 0 -60.5 -26t-35.5 -68zM870 606h-283v76h283v-76z" />
    <glyph glyph-name="ffiogonek" unicode="ff&#x12f;" horiz-adv-x="704" 
d="M681 -90v-11q0 -46 -26 -73t-69 -27q-40 0 -64 22t-24 58q0 66 92 123q-7 0 -37.5 -1.5t-42.5 -1.5h-12q32 39 33 90q2 80 2 93v37q0 51 -3 94q-2 32 -17.5 45.5t-52.5 13.5h-48v-190q0 -40 4 -93q5 -47 37 -90h-10q-29 0 -49 1q-40 2 -42 2q-7 0 -37.5 -1.5t-43.5 -1.5
h-11q32 45 33 90q2 80 2 93v115q0 44 -12.5 59.5t-49.5 15.5h-59v-190q0 -71 8 -111.5t33 -71.5h-10q-29 0 -49 1q-40 2 -42 2q-7 0 -37.5 -1.5t-43.5 -1.5h-11q16 24 24 56q8 29 10 55q1 16 1 72v147q0 30 -7.5 46.5t-30.5 33.5l7 7q19 19 25 43l7 23q2 6 5 31t5 31
q18 96 60.5 147.5t102.5 51.5q46 0 76 -11q6 -26 6 -60q0 -57 -31 -100q-32 58 -49 77.5t-35 19.5q-29 0 -29 -47q0 -3 2 -65q3 -47 3 -88v-35h121q6 83 11 110q22 96 75.5 147.5t132.5 51.5q82 0 134 -21q7 -25 7 -64q0 -73 -53 -123q-40 89 -59 116q-23 33 -52 33
q-79 0 -79 -170v-80h115q63 0 128 17q-5 -117 -5 -181v-88q0 -13 2 -93q2 -53 24 -90h-13q-7 0 -22 0.5t-18 0.5q-48 -44 -48 -94q0 -42 36 -42q34 0 70 46z" />
    <glyph glyph-name="ffimacron" unicode="ff&#x12b;" horiz-adv-x="830" 
d="M412 469v-35q37 1 116 4l-30 -66h-86v-190q0 -71 8 -111.5t33 -71.5h-10q-29 0 -49 1q-40 2 -42 2q-7 0 -37.5 -1.5t-43.5 -1.5h-11q16 24 24 56q8 29 10 55q1 16 1 72v115q0 44 -12.5 59.5t-49.5 15.5h-59v-190q0 -71 8 -111.5t33 -71.5h-10q-29 0 -49 1q-40 2 -42 2
q-7 0 -37.5 -1.5t-43.5 -1.5h-11q16 24 24 56q8 29 10 55q1 16 1 72v147q0 30 -7.5 46.5t-30.5 33.5l7 7q19 19 25 43l7 23q2 6 5 31t5 31q18 96 60.5 147.5t102.5 51.5q46 0 76 -11q6 -26 6 -60q0 -57 -31 -100q-32 58 -49 77.5t-35 19.5q-29 0 -29 -47q0 -3 2 -65
q3 -47 3 -88v-35h121q3 69 11 110q19 96 61 147.5t102 51.5q46 0 76 -11q6 -26 6 -60q0 -57 -31 -100q-32 58 -49 77.5t-35 19.5q-29 0 -29 -47q0 -3 2 -65q3 -47 3 -88zM776 263v-81q0 -13 2 -93q2 -53 24 -90h-13q-12 0 -39 1.5t-34 1.5t-37.5 -1.5t-42.5 -1.5h-12
q32 39 33 90q2 80 2 93v37q0 57 -3 86q-3 28 -11 43t-28 32q93 33 164 64q-5 -93 -5 -181zM855 606h-283v76h283v-76z" />
    <glyph glyph-name="ffomacron" unicode="ff&#x14d;" horiz-adv-x="1007" 
d="M412 469v-35q37 1 116 4l-30 -66h-86v-190q0 -71 8 -111.5t33 -71.5h-10q-29 0 -49 1q-40 2 -42 2q-7 0 -37.5 -1.5t-43.5 -1.5h-11q16 24 24 56q8 29 10 55q1 16 1 72v115q0 44 -12.5 59.5t-49.5 15.5h-59v-190q0 -71 8 -111.5t33 -71.5h-10q-29 0 -49 1q-40 2 -42 2
q-7 0 -37.5 -1.5t-43.5 -1.5h-11q16 24 24 56q8 29 10 55q1 16 1 72v147q0 30 -7.5 46.5t-30.5 33.5l7 7q19 19 25 43l7 23q2 6 5 31t5 31q18 96 60.5 147.5t102.5 51.5q46 0 76 -11q6 -26 6 -60q0 -57 -31 -100q-32 58 -49 77.5t-35 19.5q-29 0 -29 -47q0 -3 2 -65
q3 -47 3 -88v-35h121q3 69 11 110q19 96 61 147.5t102 51.5q46 0 76 -11q6 -26 6 -60q0 -57 -31 -100q-32 58 -49 77.5t-35 19.5q-29 0 -29 -47q0 -3 2 -65q3 -47 3 -88zM751 393q-50 0 -79.5 -44t-29.5 -124q0 -87 31.5 -135.5t86.5 -48.5q49 0 77.5 44.5t28.5 124.5
q0 83 -34 132q-33 51 -81 51zM514 217q0 97 69 165q69 69 171 69q106 0 173 -67q68 -68 68 -167q0 -98 -68 -166t-168 -68q-109 0 -177 67q-68 68 -68 167zM895 606h-283v76h283v-76z" />
    <glyph glyph-name="fflcommaaccent" unicode="ff&#x13c;" horiz-adv-x="700" 
d="M296 182l-1 115q0 44 -12.5 59.5t-49.5 15.5h-59v-190q0 -71 8 -111.5t33 -71.5h-10q-29 0 -49 1q-40 2 -42 2q-7 0 -37.5 -1.5t-43.5 -1.5h-11q16 24 24 56q8 29 10 55q1 16 1 72v147q0 30 -7.5 46.5t-30.5 33.5l7 7q19 19 25 43l7 23q2 6 5 31t5 31q18 96 60.5 147.5
t102.5 51.5q46 0 76 -11q6 -26 6 -60q0 -57 -31 -100q-32 58 -49 77.5t-35 19.5q-29 0 -29 -47q0 -3 2 -65q3 -47 3 -88v-35h121q6 83 11 110q48 199 204 199q64 0 96 -20q24 9 50 21q-5 -82 -5 -181v-381q0 -13 2 -93q1 -53 24 -90h-13q-12 0 -39 1.5t-34 1.5t-37.5 -1.5
t-42.5 -1.5h-12q31 39 33 90q2 80 2 93v368q0 27 -3 60q-8 74 -51 74q-31 0 -49 -36.5t-18 -108.5v-105l96 4l-30 -66h-66v-190q0 -40 4 -93q5 -47 37 -90h-10q-29 0 -49 1q-40 2 -42 2q-7 0 -37.5 -1.5t-43.5 -1.5h-11q31 45 33 90q2 80 2 93zM667 -70l-139 -196l-2 241z
" />
    <glyph glyph-name="ffumacron" unicode="ff&#x16b;" horiz-adv-x="1008" 
d="M412 469v-35q37 1 116 4l-30 -66h-86v-190q0 -71 8 -111.5t33 -71.5h-10q-29 0 -49 1q-40 2 -42 2q-7 0 -37.5 -1.5t-43.5 -1.5h-11q16 24 24 56q8 29 10 55q1 16 1 72v115q0 44 -12.5 59.5t-49.5 15.5h-59v-190q0 -71 8 -111.5t33 -71.5h-10q-29 0 -49 1q-40 2 -42 2
q-7 0 -37.5 -1.5t-43.5 -1.5h-11q16 24 24 56q8 29 10 55q1 16 1 72v147q0 30 -7.5 46.5t-30.5 33.5l7 7q19 19 25 43l7 23q2 6 5 31t5 31q18 96 60.5 147.5t102.5 51.5q46 0 76 -11q6 -26 6 -60q0 -57 -31 -100q-32 58 -49 77.5t-35 19.5q-29 0 -29 -47q0 -3 2 -65
q3 -47 3 -88v-35h121q3 69 11 110q19 96 61 147.5t102 51.5q46 0 76 -11q6 -26 6 -60q0 -57 -31 -100q-32 58 -49 77.5t-35 19.5q-29 0 -29 -47q0 -3 2 -65q3 -47 3 -88zM952 257v-50q0 -57 3 -86q5 -47 39 -75l-153 -57l-3 87q-31 -50 -59.5 -72t-71.5 -22q-73 0 -110 60
q-23 38 -23 97v100q0 63 -3 95q-3 44 -35 98q111 2 162 5q-7 -111 -7 -180v-115q0 -72 63 -72q38 0 59.5 23.5t21.5 63.5v82q0 63 -3 95q-3 44 -35 98q111 2 162 5q-7 -111 -7 -180zM900 606h-283v76h283v-76z" />
    <glyph glyph-name="ffgbreve" unicode="ff&#x11f;" horiz-adv-x="952" 
d="M412 469v-35q37 1 116 4l-30 -66h-86v-190q0 -71 8 -111.5t33 -71.5h-10q-29 0 -49 1q-40 2 -42 2q-7 0 -37.5 -1.5t-43.5 -1.5h-11q16 24 24 56q8 29 10 55q1 16 1 72v115q0 44 -12.5 59.5t-49.5 15.5h-59v-190q0 -71 8 -111.5t33 -71.5h-10q-29 0 -49 1q-40 2 -42 2
q-7 0 -37.5 -1.5t-43.5 -1.5h-11q16 24 24 56q8 29 10 55q1 16 1 72v147q0 30 -7.5 46.5t-30.5 33.5l7 7q19 19 25 43l7 23q2 6 5 31t5 31q18 96 60.5 147.5t102.5 51.5q46 0 76 -11q6 -26 6 -60q0 -57 -31 -100q-32 58 -49 77.5t-35 19.5q-29 0 -29 -47q0 -3 2 -65
q3 -47 3 -88v-35h121q3 69 11 110q19 96 61 147.5t102 51.5q46 0 76 -11q6 -26 6 -60q0 -57 -31 -100q-32 58 -49 77.5t-35 19.5q-29 0 -29 -47q0 -3 2 -65q3 -47 3 -88zM978 437l-25 -75l-77 28q42 -40 42 -102q0 -74 -53 -124q-53 -48 -128 -48q-73 0 -119 39
q-23 -21 -23 -49q0 -42 67 -45l109 -5q80 -4 122 -42.5t42 -100.5q0 -76 -67 -131q-66 -57 -168 -57q-94 0 -144.5 35t-50.5 93q0 63 74 116q-65 33 -65 103q0 64 69 113q-31 46 -31 93q0 70 53 120t126 50q20 0 66 -7.5t64 -7.5q76 0 117 4zM860 -118q0 54 -95 57
q-115 5 -151 11q-14 -26 -14 -51q0 -40 39.5 -65t109.5 -25q53 0 82 21t29 52zM732 398q-28 0 -44 -28.5t-16 -82.5q0 -121 61 -121q60 0 60 110q0 57 -16.5 89.5t-44.5 32.5zM593 681q0 33 11 72q40 -138 126 -138t126 138q11 -39 11 -72q0 -73 -37.5 -119.5t-99.5 -46.5
t-99.5 46.5t-37.5 119.5z" />
    <glyph glyph-name="ffebreve" unicode="ff&#x115;" horiz-adv-x="949" 
d="M412 469v-35q37 1 116 4l-30 -66h-86v-190q0 -71 8 -111.5t33 -71.5h-10q-29 0 -49 1q-40 2 -42 2q-7 0 -37.5 -1.5t-43.5 -1.5h-11q16 24 24 56q8 29 10 55q1 16 1 72v115q0 44 -12.5 59.5t-49.5 15.5h-59v-190q0 -71 8 -111.5t33 -71.5h-10q-29 0 -49 1q-40 2 -42 2
q-7 0 -37.5 -1.5t-43.5 -1.5h-11q16 24 24 56q8 29 10 55q1 16 1 72v147q0 30 -7.5 46.5t-30.5 33.5l7 7q19 19 25 43l7 23q2 6 5 31t5 31q18 96 60.5 147.5t102.5 51.5q46 0 76 -11q6 -26 6 -60q0 -57 -31 -100q-32 58 -49 77.5t-35 19.5q-29 0 -29 -47q0 -3 2 -65
q3 -47 3 -88v-35h121q3 69 11 110q19 96 61 147.5t102 51.5q46 0 76 -11q6 -26 6 -60q0 -57 -31 -100q-32 58 -49 77.5t-35 19.5q-29 0 -29 -47q0 -3 2 -65q3 -47 3 -88zM516 208q0 105 65 175q66 69 161 69q85 0 137 -49t52 -126q0 -13 -2 -29h-297q-1 -4 -1 -14
q0 -65 34.5 -105.5t91.5 -40.5q83 0 159 87q2 -16 2 -24q0 -69 -51 -119q-51 -48 -125 -48q-98 0 -162 66q-64 65 -64 158zM638 300h171q-3 94 -75 94q-34 0 -60.5 -26t-35.5 -68zM603 681q0 33 11 72q40 -138 126 -138t126 138q11 -39 11 -72q0 -73 -37.5 -119.5
t-99.5 -46.5t-99.5 46.5t-37.5 119.5z" />
    <glyph glyph-name="ffhcircumflex" unicode="ff&#x125;" horiz-adv-x="968" 
d="M295 182v115q0 44 -12.5 59.5t-49.5 15.5h-59v-190q0 -71 8 -111.5t33 -71.5h-10q-29 0 -49 1q-40 2 -42 2q-7 0 -37.5 -1.5t-43.5 -1.5h-11q16 24 24 56q8 29 10 55q1 16 1 72v147q0 30 -7.5 46.5t-30.5 33.5l7 7q19 19 25 43l7 23q2 6 5 31t5 31q18 96 60.5 147.5
t102.5 51.5q46 0 76 -11q6 -26 6 -60q0 -57 -31 -100q-32 58 -49 77.5t-35 19.5q-29 0 -29 -47q0 -3 2 -65q3 -47 3 -88v-35h121q6 83 11 110q46 199 203 199q64 0 96 -20q24 9 50 21q-5 -82 -5 -181v-201q27 46 57 67.5t73 21.5q74 0 112 -60q23 -38 23 -97v-112
q0 -13 2 -93q2 -50 34 -90h-11q-13 0 -42 1.5t-36 1.5t-35.5 -1.5t-40.5 -1.5h-13q21 34 23 90q2 80 2 93v109q0 34 -17 53t-48 19q-38 0 -60.5 -24t-22.5 -63v-94q0 -13 2 -93q2 -53 24 -90h-13q-12 0 -39 1.5t-34 1.5t-37.5 -1.5t-42.5 -1.5h-12q32 39 33 90q2 80 2 93
v368q0 27 -3 60q-8 74 -51 74q-31 0 -49 -36.5t-18 -108.5v-105l96 4l-30 -66h-66v-190q0 -40 4 -93q5 -47 37 -90h-10q-29 0 -49 1q-40 2 -42 2q-7 0 -37.5 -1.5t-43.5 -1.5h-11q32 45 33 90q2 80 2 93zM417 766l173 168l173 -168l-173 44z" />
    <glyph glyph-name="ffhbar" unicode="ff&#x127;" horiz-adv-x="968" 
d="M533 182v348h-52v58h51l-2 22q-9 74 -51 74q-31 0 -49 -36.5t-18 -108.5v-105l96 4l-30 -66h-66v-190q0 -40 4 -93q5 -47 37 -90h-10q-29 0 -49 1q-40 2 -42 2q-7 0 -37.5 -1.5t-43.5 -1.5h-11q32 45 33 90q2 80 2 93v115q0 44 -12.5 59.5t-49.5 15.5h-59v-190
q0 -71 8 -111.5t33 -71.5h-10q-29 0 -49 1q-40 2 -42 2q-7 0 -37.5 -1.5t-43.5 -1.5h-11q16 24 24 56q8 29 10 55q1 16 1 72v147q0 30 -7.5 46.5t-30.5 33.5l7 7q19 19 25 43l7 23q2 6 5 31t5 31q18 96 60.5 147.5t102.5 51.5q46 0 76 -11q6 -26 6 -60q0 -57 -31 -100
q-32 58 -49 77.5t-35 19.5q-29 0 -29 -47q0 -3 2 -65q3 -47 3 -88v-35h121q6 83 11 110q46 199 203 199q64 0 96 -20q24 9 50 21q-5 -88 -5 -156h169v-58h-169v-168q27 46 57 67.5t73 21.5q74 0 112 -60q23 -38 23 -97v-112q0 -13 2 -93q2 -50 34 -90h-11q-13 0 -42 1.5
t-36 1.5t-35.5 -1.5t-40.5 -1.5h-13q21 34 23 90q2 80 2 93v109q0 34 -17 53t-48 19q-38 0 -60.5 -24t-22.5 -63v-94q0 -13 2 -93q2 -53 24 -90h-13q-12 0 -39 1.5t-34 1.5t-37.5 -1.5t-42.5 -1.5h-12q32 39 33 90q2 80 2 93z" />
    <glyph glyph-name="ffitilde" unicode="ff&#x129;" horiz-adv-x="762" 
d="M295 182v115q0 44 -12.5 59.5t-49.5 15.5h-59v-190q0 -71 8 -111.5t33 -71.5h-10q-29 0 -49 1q-40 2 -42 2q-7 0 -37.5 -1.5t-43.5 -1.5h-11q16 24 24 56q8 29 10 55q1 16 1 72v147q0 30 -7.5 46.5t-30.5 33.5l7 7q19 19 25 43l7 23q2 6 5 31t5 31q18 96 60.5 147.5
t102.5 51.5q46 0 76 -11q6 -26 6 -60q0 -57 -31 -100q-32 58 -49 77.5t-35 19.5q-29 0 -29 -47q0 -3 2 -65q3 -47 3 -88v-35h121q6 93 10 110q20 96 62 147.5t102 51.5q46 0 76 -11q6 -26 6 -60v-8q26 26 58 26q28 0 63 -19q44 -23 63 -23q35 0 69 29v-8q0 -50 -26 -80
t-63 -30q-28 0 -63 19q-44 23 -63 23q-29 0 -69 -29q-32 58 -49 77.5t-35 19.5q-29 0 -29 -47q0 -3 2 -65q3 -47 3 -88v-35q37 1 116 4l-30 -66h-86v-190q0 -40 4 -93q5 -47 37 -90h-10q-29 0 -49 1q-40 2 -42 2q-7 0 -37.5 -1.5t-43.5 -1.5h-11q32 45 33 90q2 80 2 93z
M708 263v-81q0 -13 2 -93q2 -53 24 -90h-13q-12 0 -39 1.5t-34 1.5t-37.5 -1.5t-42.5 -1.5h-12q32 39 33 90q2 80 2 93v37q0 57 -3 86q-3 28 -11 43t-28 32q93 33 164 64q-5 -93 -5 -181z" />
    <glyph glyph-name="ffibreve" unicode="ff&#x12d;" horiz-adv-x="738" 
d="M295 182v115q0 44 -12.5 59.5t-49.5 15.5h-59v-190q0 -71 8 -111.5t33 -71.5h-10q-29 0 -49 1q-40 2 -42 2q-7 0 -37.5 -1.5t-43.5 -1.5h-11q16 24 24 56q8 29 10 55q1 16 1 72v147q0 30 -7.5 46.5t-30.5 33.5l7 7q19 19 25 43l7 23q2 6 5 31t5 31q18 96 60.5 147.5
t102.5 51.5q46 0 76 -11q6 -26 6 -60q0 -57 -31 -100q-32 58 -49 77.5t-35 19.5q-29 0 -29 -47q0 -3 2 -65q3 -47 3 -88v-35h121q6 93 10 110q20 96 62 147.5t102 51.5q46 0 76 -11q6 -26 6 -60q0 -7 -2 -31q29 -26 75 -26q86 0 126 138q11 -39 11 -72q0 -73 -37.5 -119.5
t-99.5 -46.5q-70 0 -113 72q-29 49 -44 65.5t-31 16.5q-29 0 -29 -47q0 -3 2 -65q3 -47 3 -88v-35q37 1 116 4l-30 -66h-86v-190q0 -40 4 -93q5 -47 37 -90h-10q-29 0 -49 1q-40 2 -42 2q-7 0 -37.5 -1.5t-43.5 -1.5h-11q32 45 33 90q2 80 2 93zM684 263v-81q0 -13 2 -93
q2 -53 24 -90h-13q-12 0 -39 1.5t-34 1.5t-37.5 -1.5t-42.5 -1.5h-12q32 39 33 90q2 80 2 93v37q0 57 -3 86q-3 28 -11 43t-28 32q93 33 164 64q-5 -93 -5 -181z" />
    <glyph glyph-name="ffij" unicode="ff&#x133;" horiz-adv-x="913" 
d="M295 182v115q0 44 -12.5 59.5t-49.5 15.5h-59v-190q0 -71 8 -111.5t33 -71.5h-10q-29 0 -49 1q-40 2 -42 2q-7 0 -37.5 -1.5t-43.5 -1.5h-11q16 24 24 56q8 29 10 55q1 16 1 72v147q0 30 -7.5 46.5t-30.5 33.5l7 7q19 19 25 43l7 23q2 6 5 31t5 31q18 96 60.5 147.5
t102.5 51.5q46 0 76 -11q6 -26 6 -60q0 -57 -31 -100q-32 58 -49 77.5t-35 19.5q-29 0 -29 -47q0 -3 2 -65q3 -47 3 -88v-35h121q6 83 11 110q22 96 75.5 147.5t132.5 51.5q82 0 134 -21q7 -25 7 -64q0 -73 -53 -123q-40 89 -59 116q-23 33 -52 33q-79 0 -79 -170v-80h115
q63 0 128 17q-5 -117 -5 -181v-88q0 -13 2 -93q2 -53 24 -90h-13q-12 0 -39 1.5t-34 1.5t-37.5 -1.5t-42.5 -1.5h-12q32 39 33 90q2 80 2 93v37q0 51 -3 94q-2 32 -17.5 45.5t-52.5 13.5h-48v-190q0 -40 4 -93q5 -47 37 -90h-10q-29 0 -49 1q-40 2 -42 2q-7 0 -37.5 -1.5
t-43.5 -1.5h-11q32 45 33 90q2 80 2 93zM876 263v-130q0 -76 3 -142q-4 -98 -57 -169q-50 -69 -127 -86q33 58 49 111q15 49 15 122v250q0 57 -3 86q-3 28 -11 43t-28 32q93 33 164 64q-5 -93 -5 -181zM915 659l-98 -97l-97 97l97 98z" />
    <glyph glyph-name="ffjcircumflex" unicode="ff&#x135;" horiz-adv-x="737" 
d="M412 469v-35q37 1 116 4l-30 -66h-86v-190q0 -71 8 -111.5t33 -71.5h-10q-29 0 -49 1q-40 2 -42 2q-7 0 -37.5 -1.5t-43.5 -1.5h-11q16 24 24 56q8 29 10 55q1 16 1 72v115q0 44 -12.5 59.5t-49.5 15.5h-59v-190q0 -71 8 -111.5t33 -71.5h-10q-29 0 -49 1q-40 2 -42 2
q-7 0 -37.5 -1.5t-43.5 -1.5h-11q16 24 24 56q8 29 10 55q1 16 1 72v147q0 30 -7.5 46.5t-30.5 33.5l7 7q19 19 25 43l7 23q2 6 5 31t5 31q18 96 60.5 147.5t102.5 51.5q46 0 76 -11q6 -26 6 -60q0 -57 -31 -100q-32 58 -49 77.5t-35 19.5q-29 0 -29 -47q0 -3 2 -65
q3 -47 3 -88v-35h121q3 69 11 110q19 96 61 147.5t102 51.5q46 0 76 -11q6 -26 6 -60q0 -57 -31 -100q-32 58 -49 77.5t-35 19.5q-29 0 -29 -47q0 -3 2 -65q3 -47 3 -88zM700 263v-130q0 -76 3 -142q-4 -98 -57 -169q-50 -69 -127 -86q33 58 49 111q15 49 15 122v250
q0 57 -3 86q-3 28 -11 43t-28 32q93 33 164 64q-5 -93 -5 -181zM526 485l115 282l115 -282l-115 87z" />
    <glyph glyph-name="ffldot" unicode="ff&#x140;" horiz-adv-x="863" 
d="M296 182l-1 115q0 44 -12.5 59.5t-49.5 15.5h-59v-190q0 -71 8 -111.5t33 -71.5h-10q-29 0 -49 1q-40 2 -42 2q-7 0 -37.5 -1.5t-43.5 -1.5h-11q16 24 24 56q8 29 10 55q1 16 1 72v147q0 30 -7.5 46.5t-30.5 33.5l7 7q19 19 25 43l7 23q2 6 5 31t5 31q18 96 60.5 147.5
t102.5 51.5q46 0 76 -11q6 -26 6 -60q0 -57 -31 -100q-32 58 -49 77.5t-35 19.5q-29 0 -29 -47q0 -3 2 -65q3 -47 3 -88v-35h121q6 83 11 110q48 199 204 199q64 0 96 -20q24 9 50 21q-5 -82 -5 -181v-381q0 -13 2 -93q1 -53 24 -90h-13q-12 0 -39 1.5t-34 1.5t-37.5 -1.5
t-42.5 -1.5h-12q31 39 33 90q2 80 2 93v368q0 27 -3 60q-8 74 -51 74q-31 0 -49 -36.5t-18 -108.5v-105l96 4l-30 -66h-66v-190q0 -40 4 -93q5 -47 37 -90h-10q-29 0 -49 1q-40 2 -42 2q-7 0 -37.5 -1.5t-43.5 -1.5h-11q31 45 33 90q2 80 2 93zM883 215l-98 -97l-97 97
l97 98z" />
    <glyph glyph-name="ffnapostrophe" unicode="ff&#x149;" horiz-adv-x="998" 
d="M412 469v-35q37 1 116 4l-30 -66h-86v-190q0 -71 8 -111.5t33 -71.5h-10q-29 0 -49 1q-40 2 -42 2q-7 0 -37.5 -1.5t-43.5 -1.5h-11q16 24 24 56q8 29 10 55q1 16 1 72v115q0 44 -12.5 59.5t-49.5 15.5h-59v-190q0 -71 8 -111.5t33 -71.5h-10q-29 0 -49 1q-40 2 -42 2
q-7 0 -37.5 -1.5t-43.5 -1.5h-11q16 24 24 56q8 29 10 55q1 16 1 72v147q0 30 -7.5 46.5t-30.5 33.5l7 7q19 19 25 43l7 23q2 6 5 31t5 31q18 96 60.5 147.5t102.5 51.5q46 0 76 -11q6 -26 6 -60q0 -57 -31 -100q-32 58 -49 77.5t-35 19.5q-29 0 -29 -47q0 -3 2 -65
q3 -47 3 -88v-35h121q3 69 11 110q19 96 61 147.5t102 51.5q46 0 76 -11q6 -26 6 -60q0 -57 -31 -100q-32 58 -49 77.5t-35 19.5q-29 0 -29 -47q0 -3 2 -65q3 -47 3 -88zM680 276v-94q0 -13 2 -93q2 -53 24 -90h-13q-12 0 -39 1.5t-34 1.5t-37.5 -1.5t-42.5 -1.5h-12
q32 39 33 90q2 80 2 93v37q0 57 -3 86q-4 53 -39 75q83 28 164 64q-7 -45 -7 -85q29 48 59 70t73 22q74 0 112 -60q23 -38 23 -97v-112q0 -13 2 -93q2 -50 34 -90h-11q-13 0 -42 1.5t-36 1.5t-35.5 -1.5t-40.5 -1.5h-13q21 34 23 90q2 80 2 93v109q0 34 -17 53t-48 19
q-38 0 -60.5 -24t-22.5 -63zM734 702l-139 -196l-2 241z" />
    <glyph glyph-name="ffobreve" unicode="ff&#x14f;" horiz-adv-x="1007" 
d="M412 469v-35q37 1 116 4l-30 -66h-86v-190q0 -71 8 -111.5t33 -71.5h-10q-29 0 -49 1q-40 2 -42 2q-7 0 -37.5 -1.5t-43.5 -1.5h-11q16 24 24 56q8 29 10 55q1 16 1 72v115q0 44 -12.5 59.5t-49.5 15.5h-59v-190q0 -71 8 -111.5t33 -71.5h-10q-29 0 -49 1q-40 2 -42 2
q-7 0 -37.5 -1.5t-43.5 -1.5h-11q16 24 24 56q8 29 10 55q1 16 1 72v147q0 30 -7.5 46.5t-30.5 33.5l7 7q19 19 25 43l7 23q2 6 5 31t5 31q18 96 60.5 147.5t102.5 51.5q46 0 76 -11q6 -26 6 -60q0 -57 -31 -100q-32 58 -49 77.5t-35 19.5q-29 0 -29 -47q0 -3 2 -65
q3 -47 3 -88v-35h121q3 69 11 110q19 96 61 147.5t102 51.5q46 0 76 -11q6 -26 6 -60q0 -57 -31 -100q-32 58 -49 77.5t-35 19.5q-29 0 -29 -47q0 -3 2 -65q3 -47 3 -88zM751 393q-50 0 -79.5 -44t-29.5 -124q0 -87 31.5 -135.5t86.5 -48.5q49 0 77.5 44.5t28.5 124.5
q0 83 -34 132q-33 51 -81 51zM514 217q0 97 69 165q69 69 171 69q106 0 173 -67q68 -68 68 -167q0 -98 -68 -166t-168 -68q-109 0 -177 67q-68 68 -68 167zM617 681q0 33 11 72q40 -138 126 -138t126 138q11 -39 11 -72q0 -73 -37.5 -119.5t-99.5 -46.5t-99.5 46.5
t-37.5 119.5z" />
    <glyph glyph-name="ffscircumflex" unicode="ff&#x15d;" horiz-adv-x="837" 
d="M412 469v-35q37 1 116 4l-30 -66h-86v-190q0 -71 8 -111.5t33 -71.5h-10q-29 0 -49 1q-40 2 -42 2q-7 0 -37.5 -1.5t-43.5 -1.5h-11q16 24 24 56q8 29 10 55q1 16 1 72v115q0 44 -12.5 59.5t-49.5 15.5h-59v-190q0 -71 8 -111.5t33 -71.5h-10q-29 0 -49 1q-40 2 -42 2
q-7 0 -37.5 -1.5t-43.5 -1.5h-11q16 24 24 56q8 29 10 55q1 16 1 72v147q0 30 -7.5 46.5t-30.5 33.5l7 7q19 19 25 43l7 23q2 6 5 31t5 31q18 96 60.5 147.5t102.5 51.5q46 0 76 -11q6 -26 6 -60q0 -57 -31 -100q-32 58 -49 77.5t-35 19.5q-29 0 -29 -47q0 -3 2 -65
q3 -47 3 -88v-35h121q3 69 11 110q19 96 61 147.5t102 51.5q46 0 76 -11q6 -26 6 -60q0 -57 -31 -100q-32 58 -49 77.5t-35 19.5q-29 0 -29 -47q0 -3 2 -65q3 -47 3 -88zM669 36q24 0 37.5 13.5t13.5 34.5q0 24 -17.5 43t-62.5 44q-63 35 -90.5 68.5t-27.5 75.5q0 57 44 96
q45 39 107 39q71 0 126 -24q8 -34 8 -58q0 -54 -27 -97q-55 127 -113 127q-21 0 -33.5 -13t-12.5 -33q0 -23 20 -43.5t74 -51.5q60 -35 84.5 -67t24.5 -72q0 -62 -46 -98.5t-119 -36.5q-74 0 -134 23q-8 43 -8 63q0 59 24 105q34 -73 62.5 -105.5t65.5 -32.5zM558 485
l115 282l115 -282l-115 87z" />
    <glyph glyph-name="ffubreve" unicode="ff&#x16d;" horiz-adv-x="1008" 
d="M412 469v-35q37 1 116 4l-30 -66h-86v-190q0 -71 8 -111.5t33 -71.5h-10q-29 0 -49 1q-40 2 -42 2q-7 0 -37.5 -1.5t-43.5 -1.5h-11q16 24 24 56q8 29 10 55q1 16 1 72v115q0 44 -12.5 59.5t-49.5 15.5h-59v-190q0 -71 8 -111.5t33 -71.5h-10q-29 0 -49 1q-40 2 -42 2
q-7 0 -37.5 -1.5t-43.5 -1.5h-11q16 24 24 56q8 29 10 55q1 16 1 72v147q0 30 -7.5 46.5t-30.5 33.5l7 7q19 19 25 43l7 23q2 6 5 31t5 31q18 96 60.5 147.5t102.5 51.5q46 0 76 -11q6 -26 6 -60q0 -57 -31 -100q-32 58 -49 77.5t-35 19.5q-29 0 -29 -47q0 -3 2 -65
q3 -47 3 -88v-35h121q3 69 11 110q19 96 61 147.5t102 51.5q46 0 76 -11q6 -26 6 -60q0 -57 -31 -100q-32 58 -49 77.5t-35 19.5q-29 0 -29 -47q0 -3 2 -65q3 -47 3 -88zM952 257v-50q0 -57 3 -86q5 -47 39 -75l-153 -57l-3 87q-31 -50 -59.5 -72t-71.5 -22q-73 0 -110 60
q-23 38 -23 97v100q0 63 -3 95q-3 44 -35 98q111 2 162 5q-7 -111 -7 -180v-115q0 -72 63 -72q38 0 59.5 23.5t21.5 63.5v82q0 63 -3 95q-3 44 -35 98q111 2 162 5q-7 -111 -7 -180zM622 681q0 33 11 72q41 -138 126 -138t126 138q11 -39 11 -72q0 -73 -37.5 -119.5
t-99.5 -46.5t-99.5 46.5t-37.5 119.5z" />
    <glyph glyph-name="longslslash" unicode="&#x17f;&#x142;" horiz-adv-x="501" 
d="M253 220l-26 46l78 45v239q0 27 -3 60q-8 74 -56 74q-32 0 -52 -37t-20 -108v-357q0 -40 4 -93q5 -47 37 -90h-10q-29 0 -49 1q-40 2 -42 2q-7 0 -37.5 -1.5t-43.5 -1.5h-11q32 45 33 90q2 80 2 93v147q0 30 -7.5 46.5t-30.5 33.5l7 7q19 19 28 53q2 8 7 37.5t7 37.5
q21 96 74.5 147.5t133.5 51.5q59 0 101 -20q24 9 50 21q-5 -82 -5 -181v-183l62 36l27 -46l-89 -52v-136q0 -13 2 -93q2 -53 24 -90h-13q-12 0 -39 1.5t-34 1.5t-37.5 -1.5t-42.5 -1.5h-12q32 39 33 90q2 80 2 93v68z" />
    <glyph glyph-name="longsthorn" unicode="&#x17f;&#xfe;" horiz-adv-x="741" 
d="M295 -81v631q0 27 -3 60q-8 74 -51 74q-31 0 -49 -36.5t-18 -108.5v-357q0 -40 4 -93q5 -47 37 -90h-10q-29 0 -49 1q-40 2 -42 2q-7 0 -37.5 -1.5t-43.5 -1.5h-11q32 45 33 90q2 80 2 93v147q0 30 -7.5 46.5t-30.5 33.5l7 7q19 19 28 53q2 8 7 37.5t7 37.5q21 97 73 148
t130 51q64 0 96 -20q24 9 50 21q-5 -82 -5 -181v-199q42 87 132 87q78 0 131 -62q54 -61 54 -165q0 -108 -61 -175q-62 -66 -149 -66q-63 0 -107 32v-96q0 -40 4 -93q5 -52 37 -90h-13q-7 0 -47 2q-19 1 -41 1q-7 0 -37.5 -1.5t-42.5 -1.5h-12q32 39 33 90q2 80 2 93z
M514 38q42 0 68.5 41t26.5 115q0 82 -30.5 128.5t-79.5 46.5q-40 0 -63.5 -30.5t-23.5 -84.5v-91q0 -62 27.5 -93.5t74.5 -31.5z" />
    <glyph glyph-name="longsb" unicode="&#x17f;b" horiz-adv-x="730" 
d="M295 24v526q0 27 -3 60q-8 74 -51 74q-31 0 -49 -36.5t-18 -108.5v-357q0 -40 4 -93q5 -47 37 -90h-10q-29 0 -49 1q-40 2 -42 2q-7 0 -37.5 -1.5t-43.5 -1.5h-11q32 45 33 90q2 80 2 93v147q0 30 -7.5 46.5t-30.5 33.5l7 7q19 19 28 53q2 8 7 37.5t7 37.5q21 97 73 148
t130 51q64 0 96 -20q24 9 50 21q-5 -82 -5 -181v-211q50 99 140 99q72 0 119 -62t47 -154q0 -113 -64 -183q-63 -70 -171 -70q-97 0 -188 42zM487 39q50 0 77.5 46t27.5 127q0 69 -26 110t-71 41q-83 0 -83 -129v-97q0 -98 75 -98z" />
    <glyph glyph-name="longsh" unicode="&#x17f;h" horiz-adv-x="730" 
d="M295 182v368q0 27 -3 60q-8 74 -51 74q-31 0 -49 -36.5t-18 -108.5v-357q0 -40 4 -93q5 -47 37 -90h-10q-29 0 -49 1q-40 2 -42 2q-7 0 -37.5 -1.5t-43.5 -1.5h-11q32 45 33 90q2 80 2 93v147q0 30 -7.5 46.5t-30.5 33.5l7 7q19 19 28 53q2 8 7 37.5t7 37.5q21 97 73 148
t130 51q64 0 96 -20q24 9 50 21q-5 -82 -5 -181v-201q27 46 57 67.5t73 21.5q74 0 112 -60q23 -38 23 -97v-112q0 -13 2 -93q2 -50 34 -90h-11q-13 0 -42 1.5t-36 1.5t-35.5 -1.5t-40.5 -1.5h-13q21 34 23 90q2 80 2 93v109q0 34 -17 53t-48 19q-38 0 -60.5 -24t-22.5 -63
v-94q0 -13 2 -93q2 -53 24 -90h-13q-12 0 -39 1.5t-34 1.5t-37.5 -1.5t-42.5 -1.5h-12q32 39 33 90q2 80 2 93z" />
    <glyph glyph-name="longsj" unicode="&#x17f;j" horiz-adv-x="449" 
d="M174 514v-332q0 -40 4 -93q5 -47 37 -90h-10q-29 0 -49 1q-40 2 -42 2q-7 0 -37.5 -1.5t-43.5 -1.5h-11q32 45 33 90q2 80 2 93v147q0 30 -7.5 46.5t-30.5 33.5l7 7q19 19 28 53q2 8 7 37.5t7 37.5q21 95 75 147t133 52q82 0 134 -21q7 -25 7 -64q0 -73 -53 -123
q-40 89 -59 116q-23 33 -52 33q-79 0 -79 -170zM412 263v-130q0 -76 3 -142q-4 -98 -57 -169q-50 -69 -127 -86q33 58 49 111q15 49 15 122v250q0 57 -3 86q-3 28 -11 43t-28 32q93 33 164 64q-5 -93 -5 -181z" />
    <glyph glyph-name="longsk" unicode="&#x17f;k" horiz-adv-x="696" 
d="M295 182v368q0 27 -3 60q-8 74 -51 74q-31 0 -49 -36.5t-18 -108.5v-357q0 -40 4 -93q5 -47 37 -90h-10q-29 0 -49 1q-40 2 -42 2q-7 0 -37.5 -1.5t-43.5 -1.5h-11q32 45 33 90q2 80 2 93v147q0 30 -7.5 46.5t-30.5 33.5l7 7q19 19 28 53q2 8 7 37.5t7 37.5q21 97 73 148
t130 51q64 0 96 -20q24 9 50 21q-5 -82 -5 -181v-381q0 -13 2 -93q2 -53 24 -90h-13q-12 0 -39 1.5t-34 1.5t-37.5 -1.5t-42.5 -1.5h-12q32 39 33 90q2 80 2 93zM515 72l-94 166l49 48q34 34 45.5 53.5t11.5 39.5q0 16 -23 54h12q8 0 35.5 -1.5t36.5 -1.5q22 0 41 1
q38 2 43 2h13l-92 -94l-59 -59l118 -197q36 -60 56 -85q-20 -7 -37 -7q-109 0 -156 81z" />
    <glyph glyph-name="longsagrave" unicode="&#x17f;&#xe0;" horiz-adv-x="662" 
d="M500 170v29q-28 -11 -46 -20q-66 -35 -66 -79q0 -17 10.5 -27.5t28.5 -10.5q30 0 51.5 29.5t21.5 78.5zM500 253v25q0 40 -21 61q-21 22 -57 22q-63 0 -115 -40q0 57 40 92.5t106 35.5q85 0 128 -54q35 -44 35 -118v-79q0 -47 1 -68q2 -55 8 -77q7 -25 27 -58
q-18 -3 -34 -3q-95 0 -113 78q-38 -86 -124 -86q-47 0 -76 28t-29 71q0 67 68 108q48 30 156 62zM68 544q18 96 60.5 147.5t102.5 51.5q46 0 76 -11q6 -26 6 -60q0 -57 -31 -100q-32 58 -49 77.5t-35 19.5q-29 0 -29 -47q0 -3 2 -65q3 -47 3 -88v-287q0 -40 4 -93
q5 -47 37 -90h-10q-29 0 -49 1q-40 2 -42 2q-7 0 -37.5 -1.5t-43.5 -1.5h-11q32 45 33 90q2 80 2 93v147q0 30 -7.5 46.5t-30.5 33.5l7 7q19 19 25 43l7 23q2 6 5 31t5 31zM346 706l133 43l18 -268z" />
    <glyph glyph-name="longsacircumflex" unicode="&#x17f;&#xe2;" horiz-adv-x="662" 
d="M500 170v29q-28 -11 -46 -20q-66 -35 -66 -79q0 -17 10.5 -27.5t28.5 -10.5q30 0 51.5 29.5t21.5 78.5zM500 253v25q0 40 -21 61q-21 22 -57 22q-63 0 -115 -40q0 57 40 92.5t106 35.5q85 0 128 -54q35 -44 35 -118v-79q0 -47 1 -68q2 -55 8 -77q7 -25 27 -58
q-18 -3 -34 -3q-95 0 -113 78q-38 -86 -124 -86q-47 0 -76 28t-29 71q0 67 68 108q48 30 156 62zM347 485l115 282l115 -282l-115 87zM68 544q18 96 60.5 147.5t102.5 51.5q46 0 76 -11q6 -26 6 -60q0 -57 -31 -100q-32 58 -49 77.5t-35 19.5q-29 0 -29 -47q0 -3 2 -65
q3 -47 3 -88v-287q0 -40 4 -93q5 -47 37 -90h-10q-29 0 -49 1q-40 2 -42 2q-7 0 -37.5 -1.5t-43.5 -1.5h-11q32 45 33 90q2 80 2 93v147q0 30 -7.5 46.5t-30.5 33.5l7 7q19 19 25 43l7 23q2 6 5 31t5 31z" />
    <glyph glyph-name="longsatilde" unicode="&#x17f;&#xe3;" horiz-adv-x="662" 
d="M500 170v29q-28 -11 -46 -20q-66 -35 -66 -79q0 -17 10.5 -27.5t28.5 -10.5q30 0 51.5 29.5t21.5 78.5zM500 253v25q0 40 -21 61q-21 22 -57 22q-63 0 -115 -40q0 57 40 92.5t106 35.5q85 0 128 -54q35 -44 35 -118v-79q0 -47 1 -68q2 -55 8 -77q7 -25 27 -58
q-18 -3 -34 -3q-95 0 -113 78q-38 -86 -124 -86q-47 0 -76 28t-29 71q0 67 68 108q48 30 156 62zM68 544q18 96 60.5 147.5t102.5 51.5q46 0 76 -11q6 -26 6 -60q0 -57 -31 -100q-32 58 -49 77.5t-35 19.5q-29 0 -29 -47q0 -3 2 -65q3 -47 3 -88v-287q0 -40 4 -93
q5 -47 37 -90h-10q-29 0 -49 1q-40 2 -42 2q-7 0 -37.5 -1.5t-43.5 -1.5h-11q32 45 33 90q2 80 2 93v147q0 30 -7.5 46.5t-30.5 33.5l7 7q19 19 25 43l7 23q2 6 5 31t5 31zM469 599q-44 23 -66 23q-39 0 -79 -29v8q0 50 29 80t70 30q31 0 66 -19q44 -23 66 -23q39 0 79 29
v-8q0 -50 -29 -80t-70 -30q-31 0 -66 19z" />
    <glyph glyph-name="longsaring" unicode="&#x17f;&#xe5;" horiz-adv-x="662" 
d="M500 170v29q-28 -11 -46 -20q-66 -35 -66 -79q0 -17 10.5 -27.5t28.5 -10.5q30 0 51.5 29.5t21.5 78.5zM500 253v25q0 40 -21 61q-21 22 -57 22q-63 0 -115 -40q0 57 40 92.5t106 35.5q85 0 128 -54q35 -44 35 -118v-79q0 -47 1 -68q2 -55 8 -77q7 -25 27 -58
q-18 -3 -34 -3q-95 0 -113 78q-38 -86 -124 -86q-47 0 -76 28t-29 71q0 67 68 108q48 30 156 62zM338 643q0 51 36 88q37 37 88 37t88 -37t37 -88t-37 -88q-38 -36 -88 -36q-52 0 -88 36t-36 88zM461 588q23 0 38.5 15.5t15.5 38.5t-15.5 39.5t-38.5 16.5q-22 0 -37 -16.5
t-15 -39.5t15 -38.5t37 -15.5zM68 544q18 96 60.5 147.5t102.5 51.5q46 0 76 -11q6 -26 6 -60q0 -57 -31 -100q-32 58 -49 77.5t-35 19.5q-29 0 -29 -47q0 -3 2 -65q3 -47 3 -88v-287q0 -40 4 -93q5 -47 37 -90h-10q-29 0 -49 1q-40 2 -42 2q-7 0 -37.5 -1.5t-43.5 -1.5h-11
q32 45 33 90q2 80 2 93v147q0 30 -7.5 46.5t-30.5 33.5l7 7q19 19 25 43l7 23q2 6 5 31t5 31z" />
    <glyph glyph-name="longsedieresis" unicode="&#x17f;&#xeb;" horiz-adv-x="711" 
d="M278 208q0 105 65 175q66 69 161 69q85 0 137 -49t52 -126q0 -13 -2 -29h-297q-1 -4 -1 -14q0 -65 34.5 -105.5t91.5 -40.5q83 0 159 87q2 -16 2 -24q0 -69 -51 -119q-51 -48 -125 -48q-98 0 -162 66q-64 65 -64 158zM400 300h171q-3 94 -75 94q-34 0 -60.5 -26
t-35.5 -68zM498 651l-82 -82l-82 82l82 82zM669 651l-80 -82l-82 82l82 82zM68 544q18 96 60.5 147.5t102.5 51.5q46 0 76 -11q6 -26 6 -60q0 -57 -31 -100q-32 58 -49 77.5t-35 19.5q-29 0 -29 -47q0 -3 2 -65q3 -47 3 -88v-287q0 -40 4 -93q5 -47 37 -90h-10q-29 0 -49 1
q-40 2 -42 2q-7 0 -37.5 -1.5t-43.5 -1.5h-11q32 45 33 90q2 80 2 93v147q0 30 -7.5 46.5t-30.5 33.5l7 7q19 19 25 43l7 23q2 6 5 31t5 31z" />
    <glyph glyph-name="longsiacute" unicode="&#x17f;&#xed;" horiz-adv-x="466" 
d="M68 544q18 96 60.5 147.5t102.5 51.5q46 0 76 -11q6 -26 6 -60q0 -57 -31 -100q-32 58 -49 77.5t-35 19.5q-29 0 -29 -47q0 -3 2 -65q3 -47 3 -88v-287q0 -40 4 -93q5 -47 37 -90h-10q-29 0 -49 1q-40 2 -42 2q-7 0 -37.5 -1.5t-43.5 -1.5h-11q32 45 33 90q2 80 2 93v147
q0 30 -7.5 46.5t-30.5 33.5l7 7q19 19 25 43l7 23q2 6 5 31t5 31zM412 263v-81q0 -13 2 -93q2 -53 24 -90h-13q-12 0 -39 1.5t-34 1.5t-37.5 -1.5t-42.5 -1.5h-12q32 39 33 90q2 80 2 93v37q0 57 -3 86q-3 28 -11 43t-28 32q93 33 164 64q-5 -93 -5 -181z" />
    <glyph glyph-name="longsigrave" unicode="&#x17f;&#xec;" horiz-adv-x="466" 
d="M174 524v-342q0 -40 4 -93q5 -47 37 -90h-10q-29 0 -49 1q-40 2 -42 2q-7 0 -37.5 -1.5t-43.5 -1.5h-11q32 45 33 90q2 80 2 93v147q0 30 -7.5 46.5t-30.5 33.5l7 7q19 19 28 53q2 8 7 37.5t7 37.5q45 199 209 199q64 0 112 -15l12 -247l-94 134q-28 39 -40 50.5
t-26 11.5q-67 0 -67 -153zM412 263v-81q0 -13 2 -93q2 -53 24 -90h-13q-12 0 -39 1.5t-34 1.5t-37.5 -1.5t-42.5 -1.5h-12q32 39 33 90q2 80 2 93v37q0 57 -3 86q-3 28 -11 43t-28 32q93 33 164 64q-5 -93 -5 -181z" />
    <glyph glyph-name="longsicircumflex" unicode="&#x17f;&#xee;" horiz-adv-x="516" 
d="M68 544q18 96 60.5 147.5t102.5 51.5q46 0 76 -11q6 -26 6 -60q0 -57 -31 -100q-32 58 -49 77.5t-35 19.5q-29 0 -29 -47q0 -3 2 -65q3 -47 3 -88v-287q0 -40 4 -93q5 -47 37 -90h-10q-29 0 -49 1q-40 2 -42 2q-7 0 -37.5 -1.5t-43.5 -1.5h-11q32 45 33 90q2 80 2 93v147
q0 30 -7.5 46.5t-30.5 33.5l7 7q19 19 25 43l7 23q2 6 5 31t5 31zM462 263v-81q0 -13 2 -93q2 -53 24 -90h-13q-12 0 -39 1.5t-34 1.5t-37.5 -1.5t-42.5 -1.5h-12q32 39 33 90q2 80 2 93v37q0 57 -3 86q-3 28 -11 43t-28 32q93 33 164 64q-5 -93 -5 -181zM292 485l115 282
l115 -282l-115 87z" />
    <glyph glyph-name="longsidieresis" unicode="&#x17f;&#xef;" horiz-adv-x="510" 
d="M391 651l-82 -82l-77 82q-18 18 -34 18q-29 0 -29 -47q0 -3 2 -65q3 -47 3 -88v-287q0 -40 4 -93q5 -47 37 -90h-10q-29 0 -49 1q-40 2 -42 2q-7 0 -37.5 -1.5t-43.5 -1.5h-11q32 45 33 90q2 80 2 93v147q0 30 -7.5 46.5t-30.5 33.5l7 7q19 19 25 43l7 23q2 6 5 31t5 31
q37 199 174 199q36 0 67 -19q34 -20 82 -73zM456 263v-81q0 -13 2 -93q2 -53 24 -90h-13q-12 0 -39 1.5t-34 1.5t-37.5 -1.5t-42.5 -1.5h-12q32 39 33 90q2 80 2 93v37q0 57 -3 86q-3 28 -11 43t-28 32q93 33 164 64q-5 -93 -5 -181zM562 651l-80 -82l-82 82l82 82z" />
    <glyph glyph-name="longsodieresis" unicode="&#x17f;&#xf6;" horiz-adv-x="769" 
d="M513 393q-50 0 -79.5 -44t-29.5 -124q0 -87 31.5 -135.5t86.5 -48.5q49 0 77.5 44.5t28.5 124.5q0 83 -34 132q-33 51 -81 51zM276 217q0 97 69 165q69 69 171 69q106 0 173 -67q68 -68 68 -167q0 -98 -68 -166t-168 -68q-109 0 -177 67q-68 68 -68 167zM512 651l-82 -82
l-82 82l82 82zM683 651l-80 -82l-82 82l82 82zM68 544q18 96 60.5 147.5t102.5 51.5q46 0 76 -11q6 -26 6 -60q0 -57 -31 -100q-32 58 -49 77.5t-35 19.5q-29 0 -29 -47q0 -3 2 -65q3 -47 3 -88v-287q0 -40 4 -93q5 -47 37 -90h-10q-29 0 -49 1q-40 2 -42 2q-7 0 -37.5 -1.5
t-43.5 -1.5h-11q32 45 33 90q2 80 2 93v147q0 30 -7.5 46.5t-30.5 33.5l7 7q19 19 25 43l7 23q2 6 5 31t5 31z" />
    <glyph glyph-name="longsotilde" unicode="&#x17f;&#xf5;" horiz-adv-x="769" 
d="M513 393q-50 0 -79.5 -44t-29.5 -124q0 -87 31.5 -135.5t86.5 -48.5q49 0 77.5 44.5t28.5 124.5q0 83 -34 132q-33 51 -81 51zM276 217q0 97 69 165q69 69 171 69q106 0 173 -67q68 -68 68 -167q0 -98 -68 -166t-168 -68q-109 0 -177 67q-68 68 -68 167zM503 599
q-44 23 -66 23q-39 0 -79 -29v8q0 50 29 80t70 30q31 0 66 -19q44 -23 66 -23q39 0 79 29v-8q0 -50 -29 -80t-70 -30q-31 0 -66 19zM68 544q18 96 60.5 147.5t102.5 51.5q46 0 76 -11q6 -26 6 -60q0 -57 -31 -100q-32 58 -49 77.5t-35 19.5q-29 0 -29 -47q0 -3 2 -65
q3 -47 3 -88v-287q0 -40 4 -93q5 -47 37 -90h-10q-29 0 -49 1q-40 2 -42 2q-7 0 -37.5 -1.5t-43.5 -1.5h-11q32 45 33 90q2 80 2 93v147q0 30 -7.5 46.5t-30.5 33.5l7 7q19 19 25 43l7 23q2 6 5 31t5 31z" />
    <glyph glyph-name="longsutilde" unicode="&#x17f;&#x169;" horiz-adv-x="770" 
d="M714 257v-50q0 -57 3 -86q5 -47 39 -75l-153 -57l-3 87q-31 -50 -59.5 -72t-71.5 -22q-73 0 -110 60q-23 38 -23 97v100q0 63 -3 95q-3 44 -35 98q111 2 162 5q-7 -111 -7 -180v-115q0 -72 63 -72q38 0 59.5 23.5t21.5 63.5v82q0 63 -3 95q-3 44 -35 98q111 2 162 5
q-7 -111 -7 -180zM68 544q18 96 60.5 147.5t102.5 51.5q46 0 76 -11q6 -26 6 -60q0 -57 -31 -100q-32 58 -49 77.5t-35 19.5q-29 0 -29 -47q0 -3 2 -65q3 -47 3 -88v-287q0 -40 4 -93q5 -47 37 -90h-10q-29 0 -49 1q-40 2 -42 2q-7 0 -37.5 -1.5t-43.5 -1.5h-11q32 45 33 90
q2 80 2 93v147q0 30 -7.5 46.5t-30.5 33.5l7 7q19 19 25 43l7 23q2 6 5 31t5 31zM518 599q-44 23 -66 23q-39 0 -79 -29v8q0 50 29 80t70 30q31 0 66 -19q44 -23 66 -23q39 0 79 29v-8q0 -50 -29 -80t-70 -30q-31 0 -66 19z" />
    <glyph glyph-name="longsydieresis" unicode="&#x17f;&#xff;" horiz-adv-x="750" 
d="M464 -100l32 75l-116 276q-2 5 -18.5 45t-24.5 56q-5 10 -18 39t-21 42h12q2 0 44 -2q21 -1 46 -1q10 0 39 1.5t37 1.5h13q-19 -42 -19 -66q0 -30 32 -114l53 -135l53 139q22 58 22 97t-21 79h12q9 0 31.5 -1.5t27.5 -1.5t28 1.5t32 1.5h15q-20 -33 -50 -93
q-21 -44 -39 -89l-149 -373q-30 -75 -65 -107.5t-84 -32.5q-33 0 -72 17q-7 24 -7 56q0 36 18 78q44 -43 96 -43q39 0 61 54zM544 651l-82 -82l-82 82l82 82zM715 651l-80 -82l-82 82l82 82zM68 544q18 96 60.5 147.5t102.5 51.5q46 0 76 -11q6 -26 6 -60q0 -57 -31 -100
q-32 58 -49 77.5t-35 19.5q-29 0 -29 -47q0 -3 2 -65q3 -47 3 -88v-287q0 -40 4 -93q5 -47 37 -90h-10q-29 0 -49 1q-40 2 -42 2q-7 0 -37.5 -1.5t-43.5 -1.5h-11q32 45 33 90q2 80 2 93v147q0 30 -7.5 46.5t-30.5 33.5l7 7q19 19 25 43l7 23q2 6 5 31t5 31z" />
    <glyph glyph-name="longslcaron" unicode="&#x17f;&#x13e;" horiz-adv-x="507" 
d="M295 182v368q0 27 -3 60q-8 74 -51 74q-31 0 -49 -36.5t-18 -108.5v-357q0 -40 4 -93q5 -47 37 -90h-10q-29 0 -49 1q-40 2 -42 2q-7 0 -37.5 -1.5t-43.5 -1.5h-11q32 45 33 90q2 80 2 93v147q0 30 -7.5 46.5t-30.5 33.5l7 7q19 19 28 53q2 8 7 37.5t7 37.5q21 97 73 148
t130 51q64 0 96 -20q24 9 50 21q-5 -82 -5 -181v-381q0 -13 2 -93q2 -53 24 -90h-13q-12 0 -39 1.5t-34 1.5t-37.5 -1.5t-42.5 -1.5h-12q32 39 33 90q2 80 2 93zM615 720l-139 -196l-2 241z" />
    <glyph glyph-name="longszdotaccent" unicode="&#x17f;&#x17c;" horiz-adv-x="674" 
d="M421 431h86q74 0 170 3l-77 -124l-164 -258q71 0 96 4q36 4 60 36q28 36 63 111q8 -40 8 -92q0 -55 -11 -116q-31 1 -65.5 2.5t-49 2t-18.5 0.5h-110q-38 0 -144 -2l89 135l159 245h-16q-72 0 -103 -10q-46 -15 -88 -109q-11 52 -11 89q0 43 13 88q55 -5 113 -5zM573 659
l-98 -97l-97 97l97 98zM68 544q18 96 60.5 147.5t102.5 51.5q46 0 76 -11q6 -26 6 -60q0 -57 -31 -100q-32 58 -49 77.5t-35 19.5q-29 0 -29 -47q0 -3 2 -65q3 -47 3 -88v-287q0 -40 4 -93q5 -47 37 -90h-10q-29 0 -49 1q-40 2 -42 2q-7 0 -37.5 -1.5t-43.5 -1.5h-11
q32 45 33 90q2 80 2 93v147q0 30 -7.5 46.5t-30.5 33.5l7 7q19 19 25 43l7 23q2 6 5 31t5 31z" />
    <glyph glyph-name="longsabreve" unicode="&#x17f;&#x103;" horiz-adv-x="663" 
d="M501 170v29q-28 -11 -46 -20q-66 -35 -66 -79q0 -17 10.5 -27.5t28.5 -10.5q30 0 51.5 29.5t21.5 78.5zM501 253v25q0 40 -21 61q-21 22 -57 22q-63 0 -115 -40q0 57 40 92.5t106 35.5q84 0 128 -54q35 -44 35 -118v-79q0 -47 1 -68q2 -55 8 -77q7 -25 27 -58
q-18 -3 -34 -3q-95 0 -113 78q-38 -86 -124 -86q-47 0 -76 28t-29 71q0 67 68 108q48 30 156 62zM336 681q0 33 11 72q41 -138 126 -138t126 138q11 -39 11 -72q0 -73 -37.5 -119.5t-99.5 -46.5t-99.5 46.5t-37.5 119.5zM68 544q18 96 60.5 147.5t102.5 51.5q46 0 76 -11
q6 -26 6 -60q0 -57 -31 -100q-32 58 -49 77.5t-35 19.5q-29 0 -29 -47q0 -3 2 -65q3 -47 3 -88v-287q0 -40 4 -93q5 -47 37 -90h-10q-29 0 -49 1q-40 2 -42 2q-7 0 -37.5 -1.5t-43.5 -1.5h-11q32 45 33 90q2 80 2 93v147q0 30 -7.5 46.5t-30.5 33.5l7 7q19 19 25 43l7 23
q2 6 5 31t5 31z" />
    <glyph glyph-name="longslacute" unicode="&#x17f;&#x13a;" horiz-adv-x="461" 
d="M295 182v368q0 27 -3 60q-8 74 -51 74q-31 0 -49 -36.5t-18 -108.5v-357q0 -40 4 -93q5 -47 37 -90h-10q-29 0 -49 1q-40 2 -42 2q-7 0 -37.5 -1.5t-43.5 -1.5h-11q32 45 33 90q2 80 2 93v147q0 30 -7.5 46.5t-30.5 33.5l7 7q19 19 28 53q2 8 7 37.5t7 37.5q21 97 73 148
t130 51q64 0 96 -20q24 9 50 21q-5 -82 -5 -181v-381q0 -13 2 -93q2 -53 24 -90h-13q-12 0 -39 1.5t-34 1.5t-37.5 -1.5t-42.5 -1.5h-12q32 39 33 90q2 80 2 93zM551 809l-265 -54l198 175z" />
    <glyph glyph-name="longsecaron" unicode="&#x17f;&#x11b;" horiz-adv-x="711" 
d="M278 208q0 105 65 175q66 69 161 69q85 0 137 -49t52 -126q0 -13 -2 -29h-297q-1 -4 -1 -14q0 -65 34.5 -105.5t91.5 -40.5q83 0 159 87q2 -16 2 -24q0 -69 -51 -119q-51 -48 -125 -48q-98 0 -162 66q-64 65 -64 158zM400 300h171q-3 94 -75 94q-34 0 -60.5 -26
t-35.5 -68zM498 680l115 87l-115 -282l-115 282zM68 544q18 96 60.5 147.5t102.5 51.5q46 0 76 -11q6 -26 6 -60q0 -57 -31 -100q-32 58 -49 77.5t-35 19.5q-29 0 -29 -47q0 -3 2 -65q3 -47 3 -88v-287q0 -40 4 -93q5 -47 37 -90h-10q-29 0 -49 1q-40 2 -42 2
q-7 0 -37.5 -1.5t-43.5 -1.5h-11q32 45 33 90q2 80 2 93v147q0 30 -7.5 46.5t-30.5 33.5l7 7q19 19 25 43l7 23q2 6 5 31t5 31z" />
    <glyph glyph-name="longsrcaron" unicode="&#x17f;&#x159;" horiz-adv-x="612" 
d="M442 218v-36q0 -13 2 -93q2 -53 24 -90h-13q-12 0 -39 1.5t-34 1.5t-37.5 -1.5t-42.5 -1.5h-12q32 39 33 90q2 80 2 93v37q0 57 -3 86q-4 53 -39 75q83 28 164 64q-7 -45 -7 -105q42 112 114 112q33 0 58 -11q5 -25 5 -59q0 -69 -36 -115q-18 37 -40.5 57.5t-44.5 20.5
q-13 2 -24.5 -9t-20.5 -41t-9 -76zM473 680l115 87l-115 -282l-115 282zM68 544q18 96 60.5 147.5t102.5 51.5q46 0 76 -11q6 -26 6 -60q0 -57 -31 -100q-32 58 -49 77.5t-35 19.5q-29 0 -29 -47q0 -3 2 -65q3 -47 3 -88v-287q0 -40 4 -93q5 -47 37 -90h-10q-29 0 -49 1
q-40 2 -42 2q-7 0 -37.5 -1.5t-43.5 -1.5h-11q32 45 33 90q2 80 2 93v147q0 30 -7.5 46.5t-30.5 33.5l7 7q19 19 25 43l7 23q2 6 5 31t5 31z" />
    <glyph glyph-name="longsamacron" unicode="&#x17f;&#x101;" horiz-adv-x="662" 
d="M500 170v29q-28 -11 -46 -20q-66 -35 -66 -79q0 -17 10.5 -27.5t28.5 -10.5q30 0 51.5 29.5t21.5 78.5zM500 253v25q0 40 -21 61q-21 22 -57 22q-63 0 -115 -40q0 57 40 92.5t106 35.5q85 0 128 -54q35 -44 35 -118v-79q0 -47 1 -68q2 -55 8 -77q7 -25 27 -58
q-18 -3 -34 -3q-95 0 -113 78q-38 -86 -124 -86q-47 0 -76 28t-29 71q0 67 68 108q48 30 156 62zM68 544q18 96 60.5 147.5t102.5 51.5q46 0 76 -11q6 -26 6 -60q0 -57 -31 -100q-32 58 -49 77.5t-35 19.5q-29 0 -29 -47q0 -3 2 -65q3 -47 3 -88v-287q0 -40 4 -93
q5 -47 37 -90h-10q-29 0 -49 1q-40 2 -42 2q-7 0 -37.5 -1.5t-43.5 -1.5h-11q32 45 33 90q2 80 2 93v147q0 30 -7.5 46.5t-30.5 33.5l7 7q19 19 25 43l7 23q2 6 5 31t5 31zM623 606h-283v76h283v-76z" />
    <glyph glyph-name="longsemacron" unicode="&#x17f;&#x113;" horiz-adv-x="711" 
d="M278 208q0 105 65 175q66 69 161 69q85 0 137 -49t52 -126q0 -13 -2 -29h-297q-1 -4 -1 -14q0 -65 34.5 -105.5t91.5 -40.5q83 0 159 87q2 -16 2 -24q0 -69 -51 -119q-51 -48 -125 -48q-98 0 -162 66q-64 65 -64 158zM400 300h171q-3 94 -75 94q-34 0 -60.5 -26
t-35.5 -68zM632 606h-283v76h283v-76zM68 544q18 96 60.5 147.5t102.5 51.5q46 0 76 -11q6 -26 6 -60q0 -57 -31 -100q-32 58 -49 77.5t-35 19.5q-29 0 -29 -47q0 -3 2 -65q3 -47 3 -88v-287q0 -40 4 -93q5 -47 37 -90h-10q-29 0 -49 1q-40 2 -42 2q-7 0 -37.5 -1.5
t-43.5 -1.5h-11q32 45 33 90q2 80 2 93v147q0 30 -7.5 46.5t-30.5 33.5l7 7q19 19 25 43l7 23q2 6 5 31t5 31z" />
    <glyph glyph-name="longsiogonek" unicode="&#x17f;&#x12f;" horiz-adv-x="466" 
d="M174 514v-332q0 -40 4 -93q5 -47 37 -90h-10q-29 0 -49 1q-40 2 -42 2q-7 0 -37.5 -1.5t-43.5 -1.5h-11q32 45 33 90q2 80 2 93v147q0 30 -7.5 46.5t-30.5 33.5l7 7q19 19 28 53q2 8 7 37.5t7 37.5q21 95 75 147t133 52q82 0 134 -21q7 -25 7 -64q0 -73 -53 -123
q-40 89 -59 116q-23 33 -52 33q-79 0 -79 -170zM443 -90v-11q0 -46 -26 -73t-69 -27q-40 0 -64 22t-24 58q0 66 93 123q-8 0 -38.5 -1.5t-42.5 -1.5h-12q32 39 33 90q2 80 2 93v37q0 57 -3 86q-3 28 -11 43t-28 32q93 33 164 64q-5 -93 -5 -181v-81q0 -13 2 -93
q2 -53 24 -90h-13q-7 0 -22.5 0.5t-18.5 0.5q-47 -44 -47 -94q0 -42 36 -42q34 0 70 46z" />
    <glyph glyph-name="longsimacron" unicode="&#x17f;&#x12b;" horiz-adv-x="592" 
d="M538 263v-81q0 -13 2 -93q2 -53 24 -90h-13q-12 0 -39 1.5t-34 1.5t-37.5 -1.5t-42.5 -1.5h-12q32 39 33 90q2 80 2 93v37q0 57 -3 86q-3 28 -11 43t-28 32q93 33 164 64q-5 -93 -5 -181zM617 606h-283v76h283v-76zM68 544q18 96 60.5 147.5t102.5 51.5q46 0 76 -11
q6 -26 6 -60q0 -57 -31 -100q-32 58 -49 77.5t-35 19.5q-29 0 -29 -47q0 -3 2 -65q3 -47 3 -88v-287q0 -40 4 -93q5 -47 37 -90h-10q-29 0 -49 1q-40 2 -42 2q-7 0 -37.5 -1.5t-43.5 -1.5h-11q32 45 33 90q2 80 2 93v147q0 30 -7.5 46.5t-30.5 33.5l7 7q19 19 25 43l7 23
q2 6 5 31t5 31z" />
    <glyph glyph-name="longsomacron" unicode="&#x17f;&#x14d;" horiz-adv-x="769" 
d="M513 393q-50 0 -79.5 -44t-29.5 -124q0 -87 31.5 -135.5t86.5 -48.5q49 0 77.5 44.5t28.5 124.5q0 83 -34 132q-33 51 -81 51zM276 217q0 97 69 165q69 69 171 69q106 0 173 -67q68 -68 68 -167q0 -98 -68 -166t-168 -68q-109 0 -177 67q-68 68 -68 167zM657 606h-283v76
h283v-76zM68 544q18 96 60.5 147.5t102.5 51.5q46 0 76 -11q6 -26 6 -60q0 -57 -31 -100q-32 58 -49 77.5t-35 19.5q-29 0 -29 -47q0 -3 2 -65q3 -47 3 -88v-287q0 -40 4 -93q5 -47 37 -90h-10q-29 0 -49 1q-40 2 -42 2q-7 0 -37.5 -1.5t-43.5 -1.5h-11q32 45 33 90
q2 80 2 93v147q0 30 -7.5 46.5t-30.5 33.5l7 7q19 19 25 43l7 23q2 6 5 31t5 31z" />
    <glyph glyph-name="longslcommaaccent" unicode="&#x17f;&#x13c;" horiz-adv-x="461" 
d="M295 182v368q0 27 -3 60q-8 74 -51 74q-31 0 -49 -36.5t-18 -108.5v-357q0 -40 4 -93q5 -47 37 -90h-10q-29 0 -49 1q-40 2 -42 2q-7 0 -37.5 -1.5t-43.5 -1.5h-11q32 45 33 90q2 80 2 93v147q0 30 -7.5 46.5t-30.5 33.5l7 7q19 19 28 53q2 8 7 37.5t7 37.5q21 97 73 148
t130 51q64 0 96 -20q24 9 50 21q-5 -82 -5 -181v-381q0 -13 2 -93q2 -53 24 -90h-13q-12 0 -39 1.5t-34 1.5t-37.5 -1.5t-42.5 -1.5h-12q32 39 33 90q2 80 2 93zM424 -70l-139 -196l-2 241z" />
    <glyph glyph-name="longsumacron" unicode="&#x17f;&#x16b;" horiz-adv-x="770" 
d="M714 257v-50q0 -57 3 -86q5 -47 39 -75l-153 -57l-3 87q-31 -50 -59.5 -72t-71.5 -22q-73 0 -110 60q-23 38 -23 97v100q0 63 -3 95q-3 44 -35 98q111 2 162 5q-7 -111 -7 -180v-115q0 -72 63 -72q38 0 59.5 23.5t21.5 63.5v82q0 63 -3 95q-3 44 -35 98q111 2 162 5
q-7 -111 -7 -180zM662 606h-283v76h283v-76zM68 544q18 96 60.5 147.5t102.5 51.5q46 0 76 -11q6 -26 6 -60q0 -57 -31 -100q-32 58 -49 77.5t-35 19.5q-29 0 -29 -47q0 -3 2 -65q3 -47 3 -88v-287q0 -40 4 -93q5 -47 37 -90h-10q-29 0 -49 1q-40 2 -42 2q-7 0 -37.5 -1.5
t-43.5 -1.5h-11q32 45 33 90q2 80 2 93v147q0 30 -7.5 46.5t-30.5 33.5l7 7q19 19 25 43l7 23q2 6 5 31t5 31z" />
    <glyph glyph-name="longsgbreve" unicode="&#x17f;&#x11f;" horiz-adv-x="714" 
d="M740 437l-25 -75l-77 28q42 -40 42 -102q0 -74 -53 -124q-53 -48 -128 -48q-73 0 -119 39q-23 -21 -23 -49q0 -42 67 -45l109 -5q80 -4 122 -42.5t42 -100.5q0 -76 -67 -131q-66 -57 -168 -57q-94 0 -144.5 35t-50.5 93q0 63 74 116q-65 33 -65 103q0 64 69 113
q-31 46 -31 93q0 70 53 120t126 50q20 0 66 -7.5t64 -7.5q76 0 117 4zM622 -118q0 54 -95 57q-115 5 -151 11q-14 -26 -14 -51q0 -40 39.5 -65t109.5 -25q53 0 82 21t29 52zM494 398q-28 0 -44 -28.5t-16 -82.5q0 -121 61 -121q60 0 60 110q0 57 -16.5 89.5t-44.5 32.5z
M355 681q0 33 11 72q40 -138 126 -138t126 138q11 -39 11 -72q0 -73 -37.5 -119.5t-99.5 -46.5t-99.5 46.5t-37.5 119.5zM68 544q18 96 60.5 147.5t102.5 51.5q46 0 76 -11q6 -26 6 -60q0 -57 -31 -100q-32 58 -49 77.5t-35 19.5q-29 0 -29 -47q0 -3 2 -65q3 -47 3 -88v-287
q0 -40 4 -93q5 -47 37 -90h-10q-29 0 -49 1q-40 2 -42 2q-7 0 -37.5 -1.5t-43.5 -1.5h-11q32 45 33 90q2 80 2 93v147q0 30 -7.5 46.5t-30.5 33.5l7 7q19 19 25 43l7 23q2 6 5 31t5 31z" />
    <glyph glyph-name="longsebreve" unicode="&#x17f;&#x115;" horiz-adv-x="711" 
d="M278 208q0 105 65 175q66 69 161 69q85 0 137 -49t52 -126q0 -13 -2 -29h-297q-1 -4 -1 -14q0 -65 34.5 -105.5t91.5 -40.5q83 0 159 87q2 -16 2 -24q0 -69 -51 -119q-51 -48 -125 -48q-98 0 -162 66q-64 65 -64 158zM400 300h171q-3 94 -75 94q-34 0 -60.5 -26
t-35.5 -68zM365 681q0 33 11 72q40 -138 126 -138t126 138q11 -39 11 -72q0 -73 -37.5 -119.5t-99.5 -46.5t-99.5 46.5t-37.5 119.5zM68 544q18 96 60.5 147.5t102.5 51.5q46 0 76 -11q6 -26 6 -60q0 -57 -31 -100q-32 58 -49 77.5t-35 19.5q-29 0 -29 -47q0 -3 2 -65
q3 -47 3 -88v-287q0 -40 4 -93q5 -47 37 -90h-10q-29 0 -49 1q-40 2 -42 2q-7 0 -37.5 -1.5t-43.5 -1.5h-11q32 45 33 90q2 80 2 93v147q0 30 -7.5 46.5t-30.5 33.5l7 7q19 19 25 43l7 23q2 6 5 31t5 31z" />
    <glyph glyph-name="longshcircumflex" unicode="&#x17f;&#x125;" horiz-adv-x="730" 
d="M295 182v368q0 27 -3 60q-8 74 -51 74q-31 0 -49 -36.5t-18 -108.5v-357q0 -40 4 -93q5 -47 37 -90h-10q-29 0 -49 1q-40 2 -42 2q-7 0 -37.5 -1.5t-43.5 -1.5h-11q32 45 33 90q2 80 2 93v147q0 30 -7.5 46.5t-30.5 33.5l7 7q19 19 28 53q2 8 7 37.5t7 37.5q21 97 73 148
t130 51q64 0 96 -20q24 9 50 21q-5 -82 -5 -181v-201q27 46 57 67.5t73 21.5q74 0 112 -60q23 -38 23 -97v-112q0 -13 2 -93q2 -50 34 -90h-11q-13 0 -42 1.5t-36 1.5t-35.5 -1.5t-40.5 -1.5h-13q21 34 23 90q2 80 2 93v109q0 34 -17 53t-48 19q-38 0 -60.5 -24t-22.5 -63
v-94q0 -13 2 -93q2 -53 24 -90h-13q-12 0 -39 1.5t-34 1.5t-37.5 -1.5t-42.5 -1.5h-12q32 39 33 90q2 80 2 93zM182 766l173 168l173 -168l-173 44z" />
    <glyph glyph-name="longshbar" unicode="&#x17f;&#x127;" horiz-adv-x="730" 
d="M412 588h169v-58h-169v-168q27 46 57 67.5t73 21.5q74 0 112 -60q23 -38 23 -97v-112q0 -13 2 -93q2 -50 34 -90h-11q-13 0 -42 1.5t-36 1.5t-35.5 -1.5t-40.5 -1.5h-13q21 34 23 90q2 80 2 93v109q0 34 -17 53t-48 19q-38 0 -60.5 -24t-22.5 -63v-94q0 -13 2 -93
q2 -53 24 -90h-13q-12 0 -39 1.5t-34 1.5t-37.5 -1.5t-42.5 -1.5h-12q32 39 33 90q2 80 2 93v348h-52v58h51q-2 18 -2 22q-8 74 -51 74q-31 0 -49 -36.5t-18 -108.5v-357q0 -40 4 -93q5 -47 37 -90h-10q-29 0 -49 1q-40 2 -42 2q-7 0 -37.5 -1.5t-43.5 -1.5h-11q32 45 33 90
q2 80 2 93v147q0 30 -7.5 46.5t-30.5 33.5l7 7q19 19 28 53q2 8 7 37.5t7 37.5q21 97 73 148t130 51q64 0 96 -20q24 9 50 21q-5 -88 -5 -156z" />
    <glyph glyph-name="longsitilde" unicode="&#x17f;&#x129;" horiz-adv-x="524" 
d="M414 578q-44 23 -63 23q-29 0 -69 -29q-32 58 -49 77.5t-35 19.5q-29 0 -29 -47q0 -3 2 -65q3 -47 3 -88v-287q0 -40 4 -93q5 -47 37 -90h-10q-29 0 -49 1q-40 2 -42 2q-7 0 -37.5 -1.5t-43.5 -1.5h-11q32 45 33 90q2 80 2 93v147q0 30 -7.5 46.5t-30.5 33.5l7 7
q19 19 25 43l7 23q2 6 5 31t5 31q18 96 60.5 147.5t102.5 51.5q46 0 76 -11q6 -26 6 -60v-8q26 26 58 26q28 0 63 -19q44 -23 63 -23q35 0 69 29v-8q0 -50 -26 -80t-63 -30q-28 0 -63 19zM470 263v-81q0 -13 2 -93q2 -53 24 -90h-13q-12 0 -39 1.5t-34 1.5t-37.5 -1.5
t-42.5 -1.5h-12q32 39 33 90q2 80 2 93v37q0 57 -3 86q-3 28 -11 43t-28 32q93 33 164 64q-5 -93 -5 -181z" />
    <glyph glyph-name="longsibreve" unicode="&#x17f;&#x12d;" horiz-adv-x="500" 
d="M386 515q-70 0 -113 72q-29 49 -44 65.5t-31 16.5q-29 0 -29 -47q0 -3 2 -65q3 -47 3 -88v-287q0 -40 4 -93q5 -47 37 -90h-10q-29 0 -49 1q-40 2 -42 2q-7 0 -37.5 -1.5t-43.5 -1.5h-11q32 45 33 90q2 80 2 93v147q0 30 -7.5 46.5t-30.5 33.5l7 7q19 19 25 43l7 23
q2 6 5 31t5 31q18 96 60.5 147.5t102.5 51.5q46 0 76 -11q6 -26 6 -60q0 -7 -2 -31q29 -26 75 -26q86 0 126 138q11 -39 11 -72q0 -73 -37.5 -119.5t-99.5 -46.5zM446 263v-81q0 -13 2 -93q2 -53 24 -90h-13q-12 0 -39 1.5t-34 1.5t-37.5 -1.5t-42.5 -1.5h-12q32 39 33 90
q2 80 2 93v37q0 57 -3 86q-3 28 -11 43t-28 32q93 33 164 64q-5 -93 -5 -181z" />
    <glyph glyph-name="longsij" unicode="&#x17f;&#x133;" horiz-adv-x="675" 
d="M174 514v-332q0 -40 4 -93q5 -47 37 -90h-10q-29 0 -49 1q-40 2 -42 2q-7 0 -37.5 -1.5t-43.5 -1.5h-11q32 45 33 90q2 80 2 93v147q0 30 -7.5 46.5t-30.5 33.5l7 7q19 19 28 53q2 8 7 37.5t7 37.5q21 95 75 147t133 52q82 0 134 -21q7 -25 7 -64q0 -73 -53 -123
q-40 89 -59 116q-23 33 -52 33q-79 0 -79 -170zM412 263v-81q0 -13 2 -93q2 -53 24 -90h-13q-12 0 -39 1.5t-34 1.5t-37.5 -1.5t-42.5 -1.5h-12q32 39 33 90q2 80 2 93v37q0 57 -3 86q-3 28 -11 43t-28 32q93 33 164 64q-5 -93 -5 -181zM638 263v-130q0 -76 3 -142
q-4 -98 -57 -169q-50 -69 -127 -86q33 58 49 111q15 49 15 122v250q0 57 -3 86q-3 28 -11 43t-28 32q93 33 164 64q-5 -93 -5 -181zM677 659l-98 -97l-97 97l97 98z" />
    <glyph glyph-name="longsjcircumflex" unicode="&#x17f;&#x135;" horiz-adv-x="499" 
d="M68 544q18 96 60.5 147.5t102.5 51.5q46 0 76 -11q6 -26 6 -60q0 -57 -31 -100q-32 58 -49 77.5t-35 19.5q-29 0 -29 -47q0 -3 2 -65q3 -47 3 -88v-287q0 -40 4 -93q5 -47 37 -90h-10q-29 0 -49 1q-40 2 -42 2q-7 0 -37.5 -1.5t-43.5 -1.5h-11q32 45 33 90q2 80 2 93v147
q0 30 -7.5 46.5t-30.5 33.5l7 7q19 19 25 43l7 23q2 6 5 31t5 31zM462 263v-130q0 -76 3 -142q-4 -98 -57 -169q-50 -69 -127 -86q33 58 49 111q15 49 15 122v250q0 57 -3 86q-3 28 -11 43t-28 32q93 33 164 64q-5 -93 -5 -181zM288 485l115 282l115 -282l-115 87z" />
    <glyph glyph-name="longsldot" unicode="&#x17f;&#x140;" horiz-adv-x="624" 
d="M295 182v368q0 27 -3 60q-8 74 -51 74q-31 0 -49 -36.5t-18 -108.5v-357q0 -40 4 -93q5 -47 37 -90h-10q-29 0 -49 1q-40 2 -42 2q-7 0 -37.5 -1.5t-43.5 -1.5h-11q32 45 33 90q2 80 2 93v147q0 30 -7.5 46.5t-30.5 33.5l7 7q19 19 28 53q2 8 7 37.5t7 37.5q21 97 73 148
t130 51q64 0 96 -20q24 9 50 21q-5 -82 -5 -181v-381q0 -13 2 -93q2 -53 24 -90h-13q-12 0 -39 1.5t-34 1.5t-37.5 -1.5t-42.5 -1.5h-12q32 39 33 90q2 80 2 93zM644 215l-98 -97l-97 97l97 98z" />
    <glyph glyph-name="longsnapostrophe" unicode="&#x17f;&#x149;" horiz-adv-x="760" 
d="M442 276v-94q0 -13 2 -93q2 -53 24 -90h-13q-12 0 -39 1.5t-34 1.5t-37.5 -1.5t-42.5 -1.5h-12q32 39 33 90q2 80 2 93v37q0 57 -3 86q-4 53 -39 75q83 28 164 64q-7 -45 -7 -85q29 48 59 70t73 22q74 0 112 -60q23 -38 23 -97v-112q0 -13 2 -93q2 -50 34 -90h-11
q-13 0 -42 1.5t-36 1.5t-35.5 -1.5t-40.5 -1.5h-13q21 34 23 90q2 80 2 93v109q0 34 -17 53t-48 19q-38 0 -60.5 -24t-22.5 -63zM68 544q18 96 60.5 147.5t102.5 51.5q46 0 76 -11q6 -26 6 -60q0 -57 -31 -100q-32 58 -49 77.5t-35 19.5q-29 0 -29 -47q0 -3 2 -65
q3 -47 3 -88v-287q0 -40 4 -93q5 -47 37 -90h-10q-29 0 -49 1q-40 2 -42 2q-7 0 -37.5 -1.5t-43.5 -1.5h-11q32 45 33 90q2 80 2 93v147q0 30 -7.5 46.5t-30.5 33.5l7 7q19 19 25 43l7 23q2 6 5 31t5 31zM496 702l-139 -196l-2 241z" />
    <glyph glyph-name="longsobreve" unicode="&#x17f;&#x14f;" horiz-adv-x="769" 
d="M513 393q-50 0 -79.5 -44t-29.5 -124q0 -87 31.5 -135.5t86.5 -48.5q49 0 77.5 44.5t28.5 124.5q0 83 -34 132q-33 51 -81 51zM276 217q0 97 69 165q69 69 171 69q106 0 173 -67q68 -68 68 -167q0 -98 -68 -166t-168 -68q-109 0 -177 67q-68 68 -68 167zM379 681
q0 33 11 72q40 -138 126 -138t126 138q11 -39 11 -72q0 -73 -37.5 -119.5t-99.5 -46.5t-99.5 46.5t-37.5 119.5zM68 544q18 96 60.5 147.5t102.5 51.5q46 0 76 -11q6 -26 6 -60q0 -57 -31 -100q-32 58 -49 77.5t-35 19.5q-29 0 -29 -47q0 -3 2 -65q3 -47 3 -88v-287
q0 -40 4 -93q5 -47 37 -90h-10q-29 0 -49 1q-40 2 -42 2q-7 0 -37.5 -1.5t-43.5 -1.5h-11q32 45 33 90q2 80 2 93v147q0 30 -7.5 46.5t-30.5 33.5l7 7q19 19 25 43l7 23q2 6 5 31t5 31z" />
    <glyph glyph-name="longsubreve" unicode="&#x17f;&#x16d;" horiz-adv-x="770" 
d="M714 257v-50q0 -57 3 -86q5 -47 39 -75l-153 -57l-3 87q-31 -50 -59.5 -72t-71.5 -22q-73 0 -110 60q-23 38 -23 97v100q0 63 -3 95q-3 44 -35 98q111 2 162 5q-7 -111 -7 -180v-115q0 -72 63 -72q38 0 59.5 23.5t21.5 63.5v82q0 63 -3 95q-3 44 -35 98q111 2 162 5
q-7 -111 -7 -180zM384 681q0 33 11 72q41 -138 126 -138t126 138q11 -39 11 -72q0 -73 -37.5 -119.5t-99.5 -46.5t-99.5 46.5t-37.5 119.5zM68 544q18 96 60.5 147.5t102.5 51.5q46 0 76 -11q6 -26 6 -60q0 -57 -31 -100q-32 58 -49 77.5t-35 19.5q-29 0 -29 -47q0 -3 2 -65
q3 -47 3 -88v-287q0 -40 4 -93q5 -47 37 -90h-10q-29 0 -49 1q-40 2 -42 2q-7 0 -37.5 -1.5t-43.5 -1.5h-11q32 45 33 90q2 80 2 93v147q0 30 -7.5 46.5t-30.5 33.5l7 7q19 19 25 43l7 23q2 6 5 31t5 31z" />
    <glyph glyph-name="longsccaron" unicode="&#x17f;&#x10d;" horiz-adv-x="688" 
d="M498 391q-47 0 -76.5 -40t-29.5 -110t35 -112t95 -42q41 0 74.5 19.5t71.5 62.5q0 -88 -46 -137t-125 -49q-97 0 -161 66q-64 65 -64 158q0 106 69 175q71 69 168 69q92 0 153 -34q5 -35 5 -64q0 -68 -43 -123q-35 87 -63 124t-63 37zM501 680l115 87l-115 -282l-115 282
zM68 544q18 96 60.5 147.5t102.5 51.5q46 0 76 -11q6 -26 6 -60q0 -57 -31 -100q-32 58 -49 77.5t-35 19.5q-29 0 -29 -47q0 -3 2 -65q3 -47 3 -88v-287q0 -40 4 -93q5 -47 37 -90h-10q-29 0 -49 1q-40 2 -42 2q-7 0 -37.5 -1.5t-43.5 -1.5h-11q32 45 33 90q2 80 2 93v147
q0 30 -7.5 46.5t-30.5 33.5l7 7q19 19 25 43l7 23q2 6 5 31t5 31z" />
    <glyph glyph-name="fi.trk" unicode="fi" horiz-adv-x="536" 
d="M68 544q18 96 60.5 147.5t102.5 51.5q46 0 76 -11q6 -26 6 -60q0 -57 -31 -100q-32 58 -49 77.5t-35 19.5q-29 0 -29 -47q0 -3 2 -65q3 -47 3 -88v-35q37 1 116 4l-30 -66h-86v-190q0 -40 4 -93q5 -47 37 -90h-10q-29 0 -49 1q-40 2 -42 2q-7 0 -37.5 -1.5t-43.5 -1.5
h-11q32 45 33 90q2 80 2 93v147q0 30 -7.5 46.5t-30.5 33.5l7 7q19 19 25 43l7 23q2 6 5 31t5 31zM522 659l-98 -97l-97 97l97 98zM482 263v-81q0 -13 2 -93q2 -53 24 -90h-13q-12 0 -39 1.5t-34 1.5t-37.5 -1.5t-42.5 -1.5h-12q32 39 33 90q2 80 2 93v37q0 57 -3 86
q-3 28 -11 43t-28 32q93 33 164 64q-5 -93 -5 -181z" />
    <glyph glyph-name="ffi.trk" unicode="ffi" horiz-adv-x="774" 
d="M412 469v-35q37 1 116 4l-30 -66h-86v-190q0 -71 8 -111.5t33 -71.5h-10q-29 0 -49 1q-40 2 -42 2q-7 0 -37.5 -1.5t-43.5 -1.5h-11q16 24 24 56q8 29 10 55q1 16 1 72v115q0 44 -12.5 59.5t-49.5 15.5h-59v-190q0 -71 8 -111.5t33 -71.5h-10q-29 0 -49 1q-40 2 -42 2
q-7 0 -37.5 -1.5t-43.5 -1.5h-11q16 24 24 56q8 29 10 55q1 16 1 72v147q0 30 -7.5 46.5t-30.5 33.5l7 7q19 19 25 43l7 23q2 6 5 31t5 31q18 96 60.5 147.5t102.5 51.5q46 0 76 -11q6 -26 6 -60q0 -57 -31 -100q-32 58 -49 77.5t-35 19.5q-29 0 -29 -47q0 -3 2 -65
q3 -47 3 -88v-35h121q3 69 11 110q19 96 61 147.5t102 51.5q46 0 76 -11q6 -26 6 -60q0 -57 -31 -100q-32 58 -49 77.5t-35 19.5q-29 0 -29 -47q0 -3 2 -65q3 -47 3 -88zM760 659l-98 -97l-97 97l97 98zM720 263v-81q0 -13 2 -93q2 -53 24 -90h-13q-12 0 -39 1.5t-34 1.5
t-37.5 -1.5t-42.5 -1.5h-12q32 39 33 90q2 80 2 93v37q0 57 -3 86q-3 28 -11 43t-28 32q93 33 164 64q-5 -93 -5 -181z" />
    <glyph glyph-name="faringacute" unicode="f&#x1fb;" horiz-adv-x="662" 
d="M500 170v29q-28 -11 -46 -20q-66 -35 -66 -79q0 -17 10.5 -27.5t28.5 -10.5q30 0 51.5 29.5t21.5 78.5zM500 253v25q0 40 -21 61q-21 22 -57 22q-63 0 -115 -40q0 57 40 92.5t106 35.5q85 0 128 -54q35 -44 35 -118v-79q0 -47 1 -68q2 -55 8 -77q7 -25 27 -58
q-18 -3 -34 -3q-95 0 -113 78q-38 -86 -124 -86q-47 0 -76 28t-29 71q0 67 68 108q48 30 156 62zM68 544q18 96 60.5 147.5t102.5 51.5q46 0 76 -11q6 -26 6 -60q0 -57 -31 -100q-32 58 -49 77.5t-35 19.5q-29 0 -29 -47q0 -3 2 -65q3 -47 3 -88v-35q37 1 116 4l-30 -66h-86
v-190q0 -40 4 -93q5 -47 37 -90h-10q-29 0 -49 1q-40 2 -42 2q-7 0 -37.5 -1.5t-43.5 -1.5h-11q32 45 33 90q2 80 2 93v147q0 30 -7.5 46.5t-30.5 33.5l7 7q19 19 25 43l7 23q2 6 5 31t5 31zM338 603q0 51 36 88q37 37 88 37t88 -37t37 -88t-37 -88q-38 -36 -88 -36
q-52 0 -88 36t-36 88zM461 548q23 0 38.5 15.5t15.5 38.5t-15.5 39.5t-38.5 16.5q-22 0 -37 -16.5t-15 -39.5t15 -38.5t37 -15.5zM594 789l-265 -54l198 175z" />
    <glyph glyph-name="ffaringacute" unicode="ff&#x1fb;" horiz-adv-x="900" 
d="M412 469v-35q37 1 116 4l-30 -66h-86v-190q0 -71 8 -111.5t33 -71.5h-10q-29 0 -49 1q-40 2 -42 2q-7 0 -37.5 -1.5t-43.5 -1.5h-11q16 24 24 56q8 29 10 55q1 16 1 72v115q0 44 -12.5 59.5t-49.5 15.5h-59v-190q0 -71 8 -111.5t33 -71.5h-10q-29 0 -49 1q-40 2 -42 2
q-7 0 -37.5 -1.5t-43.5 -1.5h-11q16 24 24 56q8 29 10 55q1 16 1 72v147q0 30 -7.5 46.5t-30.5 33.5l7 7q19 19 25 43l7 23q2 6 5 31t5 31q18 96 60.5 147.5t102.5 51.5q46 0 76 -11q6 -26 6 -60q0 -57 -31 -100q-32 58 -49 77.5t-35 19.5q-29 0 -29 -47q0 -3 2 -65
q3 -47 3 -88v-35h121q3 69 11 110q19 96 61 147.5t102 51.5q46 0 76 -11q6 -26 6 -60q0 -57 -31 -100q-32 58 -49 77.5t-35 19.5q-29 0 -29 -47q0 -3 2 -65q3 -47 3 -88zM738 170v29q-28 -11 -46 -20q-66 -35 -66 -79q0 -17 10.5 -27.5t28.5 -10.5q30 0 51.5 29.5t21.5 78.5
zM738 253v25q0 40 -21 61q-21 22 -57 22q-63 0 -115 -40q0 57 40 92.5t106 35.5q85 0 128 -54q35 -44 35 -118v-79q0 -47 1 -68q2 -55 8 -77q7 -25 27 -58q-18 -3 -34 -3q-95 0 -113 78q-38 -86 -124 -86q-47 0 -76 28t-29 71q0 67 68 108q48 30 156 62zM576 603q0 51 36 88
q37 37 88 37t88 -37t37 -88t-37 -88q-38 -36 -88 -36q-52 0 -88 36t-36 88zM699 548q23 0 38.5 15.5t15.5 38.5t-15.5 39.5t-38.5 16.5q-22 0 -37 -16.5t-15 -39.5t15 -38.5t37 -15.5zM832 789l-265 -54l198 175z" />
    <glyph glyph-name="longsaringacute" unicode="&#x17f;&#x1fb;" horiz-adv-x="662" 
d="M500 170v29q-28 -11 -46 -20q-66 -35 -66 -79q0 -17 10.5 -27.5t28.5 -10.5q30 0 51.5 29.5t21.5 78.5zM500 253v25q0 40 -21 61q-21 22 -57 22q-63 0 -115 -40q0 57 40 92.5t106 35.5q85 0 128 -54q35 -44 35 -118v-79q0 -47 1 -68q2 -55 8 -77q7 -25 27 -58
q-18 -3 -34 -3q-95 0 -113 78q-38 -86 -124 -86q-47 0 -76 28t-29 71q0 67 68 108q48 30 156 62zM68 544q18 96 60.5 147.5t102.5 51.5q46 0 76 -11q6 -26 6 -60q0 -57 -31 -100q-32 58 -49 77.5t-35 19.5q-29 0 -29 -47q0 -3 2 -65q3 -47 3 -88v-287q0 -40 4 -93
q5 -47 37 -90h-10q-29 0 -49 1q-40 2 -42 2q-7 0 -37.5 -1.5t-43.5 -1.5h-11q32 45 33 90q2 80 2 93v147q0 30 -7.5 46.5t-30.5 33.5l7 7q19 19 25 43l7 23q2 6 5 31t5 31zM338 603q0 51 36 88q37 37 88 37t88 -37t37 -88t-37 -88q-38 -36 -88 -36q-52 0 -88 36t-36 88z
M461 548q23 0 38.5 15.5t15.5 38.5t-15.5 39.5t-38.5 16.5q-22 0 -37 -16.5t-15 -39.5t15 -38.5t37 -15.5zM594 789l-265 -54l198 175z" />
    <glyph glyph-name="fadblgrave" unicode="f&#x201;" horiz-adv-x="662" 
d="M500 170v29q-28 -11 -46 -20q-66 -35 -66 -79q0 -17 10.5 -27.5t28.5 -10.5q30 0 51.5 29.5t21.5 78.5zM500 253v25q0 40 -21 61q-21 22 -57 22q-63 0 -115 -40q0 57 40 92.5t106 35.5q85 0 128 -54q35 -44 35 -118v-79q0 -47 1 -68q2 -55 8 -77q7 -25 27 -58
q-18 -3 -34 -3q-95 0 -113 78q-38 -86 -124 -86q-47 0 -76 28t-29 71q0 67 68 108q48 30 156 62zM68 544q18 96 60.5 147.5t102.5 51.5q46 0 76 -11q6 -26 6 -60q0 -57 -31 -100q-32 58 -49 77.5t-35 19.5q-29 0 -29 -47q0 -3 2 -65q3 -47 3 -88v-35q37 1 116 4l-30 -66h-86
v-190q0 -40 4 -93q5 -47 37 -90h-10q-29 0 -49 1q-40 2 -42 2q-7 0 -37.5 -1.5t-43.5 -1.5h-11q32 45 33 90q2 80 2 93v147q0 30 -7.5 46.5t-30.5 33.5l7 7q19 19 25 43l7 23q2 6 5 31t5 31zM474 709l122 40l18 -249zM329 709l122 40l18 -249z" />
    <glyph glyph-name="ffadblgrave" unicode="ff&#x201;" horiz-adv-x="900" 
d="M412 469v-35q37 1 116 4l-30 -66h-86v-190q0 -71 8 -111.5t33 -71.5h-10q-29 0 -49 1q-40 2 -42 2q-7 0 -37.5 -1.5t-43.5 -1.5h-11q16 24 24 56q8 29 10 55q1 16 1 72v115q0 44 -12.5 59.5t-49.5 15.5h-59v-190q0 -71 8 -111.5t33 -71.5h-10q-29 0 -49 1q-40 2 -42 2
q-7 0 -37.5 -1.5t-43.5 -1.5h-11q16 24 24 56q8 29 10 55q1 16 1 72v147q0 30 -7.5 46.5t-30.5 33.5l7 7q19 19 25 43l7 23q2 6 5 31t5 31q18 96 60.5 147.5t102.5 51.5q46 0 76 -11q6 -26 6 -60q0 -57 -31 -100q-32 58 -49 77.5t-35 19.5q-29 0 -29 -47q0 -3 2 -65
q3 -47 3 -88v-35h121q3 69 11 110q19 96 61 147.5t102 51.5q46 0 76 -11q6 -26 6 -60q0 -57 -31 -100q-32 58 -49 77.5t-35 19.5q-29 0 -29 -47q0 -3 2 -65q3 -47 3 -88zM738 170v29q-28 -11 -46 -20q-66 -35 -66 -79q0 -17 10.5 -27.5t28.5 -10.5q30 0 51.5 29.5t21.5 78.5
zM738 253v25q0 40 -21 61q-21 22 -57 22q-63 0 -115 -40q0 57 40 92.5t106 35.5q85 0 128 -54q35 -44 35 -118v-79q0 -47 1 -68q2 -55 8 -77q7 -25 27 -58q-18 -3 -34 -3q-95 0 -113 78q-38 -86 -124 -86q-47 0 -76 28t-29 71q0 67 68 108q48 30 156 62zM712 709l122 40
l18 -249zM567 709l122 40l18 -249z" />
    <glyph glyph-name="longsadblgrave" unicode="&#x17f;&#x201;" horiz-adv-x="662" 
d="M500 170v29q-28 -11 -46 -20q-66 -35 -66 -79q0 -17 10.5 -27.5t28.5 -10.5q30 0 51.5 29.5t21.5 78.5zM500 253v25q0 40 -21 61q-21 22 -57 22q-63 0 -115 -40q0 57 40 92.5t106 35.5q85 0 128 -54q35 -44 35 -118v-79q0 -47 1 -68q2 -55 8 -77q7 -25 27 -58
q-18 -3 -34 -3q-95 0 -113 78q-38 -86 -124 -86q-47 0 -76 28t-29 71q0 67 68 108q48 30 156 62zM68 544q18 96 60.5 147.5t102.5 51.5q46 0 76 -11q6 -26 6 -60q0 -57 -31 -100q-32 58 -49 77.5t-35 19.5q-29 0 -29 -47q0 -3 2 -65q3 -47 3 -88v-287q0 -40 4 -93
q5 -47 37 -90h-10q-29 0 -49 1q-40 2 -42 2q-7 0 -37.5 -1.5t-43.5 -1.5h-11q32 45 33 90q2 80 2 93v147q0 30 -7.5 46.5t-30.5 33.5l7 7q19 19 25 43l7 23q2 6 5 31t5 31zM474 709l122 40l18 -249zM329 709l122 40l18 -249z" />
    <glyph glyph-name="fainvbreve" unicode="f&#x203;" horiz-adv-x="662" 
d="M68 544q18 96 60.5 147.5t102.5 51.5q46 0 76 -11q6 -26 6 -60q0 -57 -31 -100q-32 58 -49 77.5t-35 19.5q-29 0 -29 -47q0 -3 2 -65q3 -47 3 -88v-35q37 1 116 4l-30 -66h-86v-190q0 -40 4 -93q5 -47 37 -90h-10q-29 0 -49 1q-40 2 -42 2q-7 0 -37.5 -1.5t-43.5 -1.5
h-11q32 45 33 90q2 80 2 93v147q0 30 -7.5 46.5t-30.5 33.5l7 7q19 19 25 43l7 23q2 6 5 31t5 31zM500 170v29q-28 -11 -46 -20q-66 -35 -66 -79q0 -17 10.5 -27.5t28.5 -10.5q30 0 51.5 29.5t21.5 78.5zM500 253v25q0 40 -21 61q-21 22 -57 22q-63 0 -115 -40q0 57 40 92.5
t106 35.5q85 0 128 -54q35 -44 35 -118v-79q0 -47 1 -68q2 -55 8 -77q7 -25 27 -58q-18 -3 -34 -3q-95 0 -113 78q-38 -86 -124 -86q-47 0 -76 28t-29 71q0 67 68 108q48 30 156 62zM325 576q0 73 37.5 119.5t99.5 46.5t99.5 -46.5t37.5 -119.5q0 -33 -11 -72
q-40 138 -126 138t-126 -138q-11 39 -11 72z" />
    <glyph glyph-name="ffainvbreve" unicode="ff&#x203;" horiz-adv-x="900" 
d="M412 469v-35q37 1 116 4l-30 -66h-86v-190q0 -71 8 -111.5t33 -71.5h-10q-29 0 -49 1q-40 2 -42 2q-7 0 -37.5 -1.5t-43.5 -1.5h-11q16 24 24 56q8 29 10 55q1 16 1 72v115q0 44 -12.5 59.5t-49.5 15.5h-59v-190q0 -71 8 -111.5t33 -71.5h-10q-29 0 -49 1q-40 2 -42 2
q-7 0 -37.5 -1.5t-43.5 -1.5h-11q16 24 24 56q8 29 10 55q1 16 1 72v147q0 30 -7.5 46.5t-30.5 33.5l7 7q19 19 25 43l7 23q2 6 5 31t5 31q18 96 60.5 147.5t102.5 51.5q46 0 76 -11q6 -26 6 -60q0 -57 -31 -100q-32 58 -49 77.5t-35 19.5q-29 0 -29 -47q0 -3 2 -65
q3 -47 3 -88v-35h121q3 69 11 110q19 96 61 147.5t102 51.5q46 0 76 -11q6 -26 6 -60q0 -57 -31 -100q-32 58 -49 77.5t-35 19.5q-29 0 -29 -47q0 -3 2 -65q3 -47 3 -88zM738 170v29q-28 -11 -46 -20q-66 -35 -66 -79q0 -17 10.5 -27.5t28.5 -10.5q30 0 51.5 29.5t21.5 78.5
zM738 253v25q0 40 -21 61q-21 22 -57 22q-63 0 -115 -40q0 57 40 92.5t106 35.5q85 0 128 -54q35 -44 35 -118v-79q0 -47 1 -68q2 -55 8 -77q7 -25 27 -58q-18 -3 -34 -3q-95 0 -113 78q-38 -86 -124 -86q-47 0 -76 28t-29 71q0 67 68 108q48 30 156 62zM563 576
q0 73 37.5 119.5t99.5 46.5t99.5 -46.5t37.5 -119.5q0 -33 -11 -72q-40 138 -126 138t-126 -138q-11 39 -11 72z" />
    <glyph glyph-name="longsainvbreve" unicode="&#x17f;&#x203;" horiz-adv-x="662" 
d="M500 170v29q-28 -11 -46 -20q-66 -35 -66 -79q0 -17 10.5 -27.5t28.5 -10.5q30 0 51.5 29.5t21.5 78.5zM500 253v25q0 40 -21 61q-21 22 -57 22q-63 0 -115 -40q0 57 40 92.5t106 35.5q85 0 128 -54q35 -44 35 -118v-79q0 -47 1 -68q2 -55 8 -77q7 -25 27 -58
q-18 -3 -34 -3q-95 0 -113 78q-38 -86 -124 -86q-47 0 -76 28t-29 71q0 67 68 108q48 30 156 62zM325 576q0 73 37.5 119.5t99.5 46.5t99.5 -46.5t37.5 -119.5q0 -33 -11 -72q-40 138 -126 138t-126 -138q-11 39 -11 72zM68 544q18 96 60.5 147.5t102.5 51.5q46 0 76 -11
q6 -26 6 -60q0 -57 -31 -100q-32 58 -49 77.5t-35 19.5q-29 0 -29 -47q0 -3 2 -65q3 -47 3 -88v-287q0 -40 4 -93q5 -47 37 -90h-10q-29 0 -49 1q-40 2 -42 2q-7 0 -37.5 -1.5t-43.5 -1.5h-11q32 45 33 90q2 80 2 93v147q0 30 -7.5 46.5t-30.5 33.5l7 7q19 19 25 43l7 23
q2 6 5 31t5 31z" />
    <glyph glyph-name="fetilde" unicode="f&#x1ebd;" horiz-adv-x="711" 
d="M68 544q18 96 60.5 147.5t102.5 51.5q46 0 76 -11q6 -26 6 -60q0 -57 -31 -100q-32 58 -49 77.5t-35 19.5q-29 0 -29 -47q0 -3 2 -65q3 -47 3 -88v-35q37 1 116 4l-30 -66h-86v-190q0 -40 4 -93q5 -47 37 -90h-10q-29 0 -49 1q-40 2 -42 2q-7 0 -37.5 -1.5t-43.5 -1.5
h-11q32 45 33 90q2 80 2 93v147q0 30 -7.5 46.5t-30.5 33.5l7 7q19 19 25 43l7 23q2 6 5 31t5 31zM278 208q0 105 65 175q66 69 161 69q85 0 137 -49t52 -126q0 -13 -2 -29h-297q-1 -4 -1 -14q0 -65 34.5 -105.5t91.5 -40.5q83 0 159 87q2 -16 2 -24q0 -69 -51 -119
q-51 -48 -125 -48q-98 0 -162 66q-64 65 -64 158zM400 300h171q-3 94 -75 94q-34 0 -60.5 -26t-35.5 -68zM489 599q-44 23 -66 23q-39 0 -79 -29v8q0 50 29 80t70 30q31 0 66 -19q44 -23 66 -23q39 0 79 29v-8q0 -50 -29 -80t-70 -30q-31 0 -66 19z" />
    <glyph glyph-name="ffetilde" unicode="ff&#x1ebd;" horiz-adv-x="949" 
d="M412 469v-35q37 1 116 4l-30 -66h-86v-190q0 -71 8 -111.5t33 -71.5h-10q-29 0 -49 1q-40 2 -42 2q-7 0 -37.5 -1.5t-43.5 -1.5h-11q16 24 24 56q8 29 10 55q1 16 1 72v115q0 44 -12.5 59.5t-49.5 15.5h-59v-190q0 -71 8 -111.5t33 -71.5h-10q-29 0 -49 1q-40 2 -42 2
q-7 0 -37.5 -1.5t-43.5 -1.5h-11q16 24 24 56q8 29 10 55q1 16 1 72v147q0 30 -7.5 46.5t-30.5 33.5l7 7q19 19 25 43l7 23q2 6 5 31t5 31q18 96 60.5 147.5t102.5 51.5q46 0 76 -11q6 -26 6 -60q0 -57 -31 -100q-32 58 -49 77.5t-35 19.5q-29 0 -29 -47q0 -3 2 -65
q3 -47 3 -88v-35h121q3 69 11 110q19 96 61 147.5t102 51.5q46 0 76 -11q6 -26 6 -60q0 -57 -31 -100q-32 58 -49 77.5t-35 19.5q-29 0 -29 -47q0 -3 2 -65q3 -47 3 -88zM516 208q0 105 65 175q66 69 161 69q85 0 137 -49t52 -126q0 -13 -2 -29h-297q-1 -4 -1 -14
q0 -65 34.5 -105.5t91.5 -40.5q83 0 159 87q2 -16 2 -24q0 -69 -51 -119q-51 -48 -125 -48q-98 0 -162 66q-64 65 -64 158zM638 300h171q-3 94 -75 94q-34 0 -60.5 -26t-35.5 -68zM727 599q-44 23 -66 23q-39 0 -79 -29v8q0 50 29 80t70 30q31 0 66 -19q44 -23 66 -23
q39 0 79 29v-8q0 -50 -29 -80t-70 -30q-31 0 -66 19z" />
    <glyph glyph-name="longsetilde" unicode="&#x17f;&#x1ebd;" horiz-adv-x="711" 
d="M278 208q0 105 65 175q66 69 161 69q85 0 137 -49t52 -126q0 -13 -2 -29h-297q-1 -4 -1 -14q0 -65 34.5 -105.5t91.5 -40.5q83 0 159 87q2 -16 2 -24q0 -69 -51 -119q-51 -48 -125 -48q-98 0 -162 66q-64 65 -64 158zM400 300h171q-3 94 -75 94q-34 0 -60.5 -26
t-35.5 -68zM489 599q-44 23 -66 23q-39 0 -79 -29v8q0 50 29 80t70 30q31 0 66 -19q44 -23 66 -23q39 0 79 29v-8q0 -50 -29 -80t-70 -30q-31 0 -66 19zM68 544q18 96 60.5 147.5t102.5 51.5q46 0 76 -11q6 -26 6 -60q0 -57 -31 -100q-32 58 -49 77.5t-35 19.5
q-29 0 -29 -47q0 -3 2 -65q3 -47 3 -88v-287q0 -40 4 -93q5 -47 37 -90h-10q-29 0 -49 1q-40 2 -42 2q-7 0 -37.5 -1.5t-43.5 -1.5h-11q32 45 33 90q2 80 2 93v147q0 30 -7.5 46.5t-30.5 33.5l7 7q19 19 25 43l7 23q2 6 5 31t5 31z" />
    <glyph glyph-name="fedblgrave" unicode="f&#x205;" horiz-adv-x="711" 
d="M68 544q18 96 60.5 147.5t102.5 51.5q46 0 76 -11q6 -26 6 -60q0 -57 -31 -100q-32 58 -49 77.5t-35 19.5q-29 0 -29 -47q0 -3 2 -65q3 -47 3 -88v-35q37 1 116 4l-30 -66h-86v-190q0 -40 4 -93q5 -47 37 -90h-10q-29 0 -49 1q-40 2 -42 2q-7 0 -37.5 -1.5t-43.5 -1.5
h-11q32 45 33 90q2 80 2 93v147q0 30 -7.5 46.5t-30.5 33.5l7 7q19 19 25 43l7 23q2 6 5 31t5 31zM278 208q0 105 65 175q66 69 161 69q85 0 137 -49t52 -126q0 -13 -2 -29h-297q-1 -4 -1 -14q0 -65 34.5 -105.5t91.5 -40.5q83 0 159 87q2 -16 2 -24q0 -69 -51 -119
q-51 -48 -125 -48q-98 0 -162 66q-64 65 -64 158zM400 300h171q-3 94 -75 94q-34 0 -60.5 -26t-35.5 -68zM475 709l122 40l18 -249zM330 709l122 40l18 -249z" />
    <glyph glyph-name="ffedblgrave" unicode="ff&#x205;" horiz-adv-x="949" 
d="M412 469v-35q37 1 116 4l-30 -66h-86v-190q0 -71 8 -111.5t33 -71.5h-10q-29 0 -49 1q-40 2 -42 2q-7 0 -37.5 -1.5t-43.5 -1.5h-11q16 24 24 56q8 29 10 55q1 16 1 72v115q0 44 -12.5 59.5t-49.5 15.5h-59v-190q0 -71 8 -111.5t33 -71.5h-10q-29 0 -49 1q-40 2 -42 2
q-7 0 -37.5 -1.5t-43.5 -1.5h-11q16 24 24 56q8 29 10 55q1 16 1 72v147q0 30 -7.5 46.5t-30.5 33.5l7 7q19 19 25 43l7 23q2 6 5 31t5 31q18 96 60.5 147.5t102.5 51.5q46 0 76 -11q6 -26 6 -60q0 -57 -31 -100q-32 58 -49 77.5t-35 19.5q-29 0 -29 -47q0 -3 2 -65
q3 -47 3 -88v-35h121q3 69 11 110q19 96 61 147.5t102 51.5q46 0 76 -11q6 -26 6 -60q0 -57 -31 -100q-32 58 -49 77.5t-35 19.5q-29 0 -29 -47q0 -3 2 -65q3 -47 3 -88zM516 208q0 105 65 175q66 69 161 69q85 0 137 -49t52 -126q0 -13 -2 -29h-297q-1 -4 -1 -14
q0 -65 34.5 -105.5t91.5 -40.5q83 0 159 87q2 -16 2 -24q0 -69 -51 -119q-51 -48 -125 -48q-98 0 -162 66q-64 65 -64 158zM638 300h171q-3 94 -75 94q-34 0 -60.5 -26t-35.5 -68zM713 709l122 40l18 -249zM568 709l122 40l18 -249z" />
    <glyph glyph-name="longsedblgrave" unicode="&#x17f;&#x205;" horiz-adv-x="711" 
d="M68 544q18 96 60.5 147.5t102.5 51.5q46 0 76 -11q6 -26 6 -60q0 -57 -31 -100q-32 58 -49 77.5t-35 19.5q-29 0 -29 -47q0 -3 2 -65q3 -47 3 -88v-287q0 -40 4 -93q5 -47 37 -90h-10q-29 0 -49 1q-40 2 -42 2q-7 0 -37.5 -1.5t-43.5 -1.5h-11q32 45 33 90q2 80 2 93v147
q0 30 -7.5 46.5t-30.5 33.5l7 7q19 19 25 43l7 23q2 6 5 31t5 31zM278 208q0 105 65 175q66 69 161 69q85 0 137 -49t52 -126q0 -13 -2 -29h-297q-1 -4 -1 -14q0 -65 34.5 -105.5t91.5 -40.5q83 0 159 87q2 -16 2 -24q0 -69 -51 -119q-51 -48 -125 -48q-98 0 -162 66
q-64 65 -64 158zM400 300h171q-3 94 -75 94q-34 0 -60.5 -26t-35.5 -68zM475 709l122 40l18 -249zM330 709l122 40l18 -249z" />
    <glyph glyph-name="feinvbreve" unicode="f&#x207;" horiz-adv-x="711" 
d="M68 544q18 96 60.5 147.5t102.5 51.5q46 0 76 -11q6 -26 6 -60q0 -57 -31 -100q-32 58 -49 77.5t-35 19.5q-29 0 -29 -47q0 -3 2 -65q3 -47 3 -88v-35q37 1 116 4l-30 -66h-86v-190q0 -40 4 -93q5 -47 37 -90h-10q-29 0 -49 1q-40 2 -42 2q-7 0 -37.5 -1.5t-43.5 -1.5
h-11q32 45 33 90q2 80 2 93v147q0 30 -7.5 46.5t-30.5 33.5l7 7q19 19 25 43l7 23q2 6 5 31t5 31zM278 208q0 105 65 175q66 69 161 69q85 0 137 -49t52 -126q0 -13 -2 -29h-297q-1 -4 -1 -14q0 -65 34.5 -105.5t91.5 -40.5q83 0 159 87q2 -16 2 -24q0 -69 -51 -119
q-51 -48 -125 -48q-98 0 -162 66q-64 65 -64 158zM400 300h171q-3 94 -75 94q-34 0 -60.5 -26t-35.5 -68zM365 576q0 73 37.5 119.5t99.5 46.5t99.5 -46.5t37.5 -119.5q0 -33 -11 -72q-40 138 -126 138t-126 -138q-11 39 -11 72z" />
    <glyph glyph-name="ffeinvbreve" unicode="ff&#x207;" horiz-adv-x="949" 
d="M412 469v-35q37 1 116 4l-30 -66h-86v-190q0 -71 8 -111.5t33 -71.5h-10q-29 0 -49 1q-40 2 -42 2q-7 0 -37.5 -1.5t-43.5 -1.5h-11q16 24 24 56q8 29 10 55q1 16 1 72v115q0 44 -12.5 59.5t-49.5 15.5h-59v-190q0 -71 8 -111.5t33 -71.5h-10q-29 0 -49 1q-40 2 -42 2
q-7 0 -37.5 -1.5t-43.5 -1.5h-11q16 24 24 56q8 29 10 55q1 16 1 72v147q0 30 -7.5 46.5t-30.5 33.5l7 7q19 19 25 43l7 23q2 6 5 31t5 31q18 96 60.5 147.5t102.5 51.5q46 0 76 -11q6 -26 6 -60q0 -57 -31 -100q-32 58 -49 77.5t-35 19.5q-29 0 -29 -47q0 -3 2 -65
q3 -47 3 -88v-35h121q3 69 11 110q19 96 61 147.5t102 51.5q46 0 76 -11q6 -26 6 -60q0 -57 -31 -100q-32 58 -49 77.5t-35 19.5q-29 0 -29 -47q0 -3 2 -65q3 -47 3 -88zM516 208q0 105 65 175q66 69 161 69q85 0 137 -49t52 -126q0 -13 -2 -29h-297q-1 -4 -1 -14
q0 -65 34.5 -105.5t91.5 -40.5q83 0 159 87q2 -16 2 -24q0 -69 -51 -119q-51 -48 -125 -48q-98 0 -162 66q-64 65 -64 158zM638 300h171q-3 94 -75 94q-34 0 -60.5 -26t-35.5 -68zM603 576q0 73 37.5 119.5t99.5 46.5t99.5 -46.5t37.5 -119.5q0 -33 -11 -72
q-40 138 -126 138t-126 -138q-11 39 -11 72z" />
    <glyph glyph-name="longseinvbreve" unicode="&#x17f;&#x207;" horiz-adv-x="711" 
d="M278 208q0 105 65 175q66 69 161 69q85 0 137 -49t52 -126q0 -13 -2 -29h-297q-1 -4 -1 -14q0 -65 34.5 -105.5t91.5 -40.5q83 0 159 87q2 -16 2 -24q0 -69 -51 -119q-51 -48 -125 -48q-98 0 -162 66q-64 65 -64 158zM400 300h171q-3 94 -75 94q-34 0 -60.5 -26
t-35.5 -68zM365 576q0 73 37.5 119.5t99.5 46.5t99.5 -46.5t37.5 -119.5q0 -33 -11 -72q-40 138 -126 138t-126 -138q-11 39 -11 72zM68 544q18 96 60.5 147.5t102.5 51.5q46 0 76 -11q6 -26 6 -60q0 -57 -31 -100q-32 58 -49 77.5t-35 19.5q-29 0 -29 -47q0 -3 2 -65
q3 -47 3 -88v-287q0 -40 4 -93q5 -47 37 -90h-10q-29 0 -49 1q-40 2 -42 2q-7 0 -37.5 -1.5t-43.5 -1.5h-11q32 45 33 90q2 80 2 93v147q0 30 -7.5 46.5t-30.5 33.5l7 7q19 19 25 43l7 23q2 6 5 31t5 31z" />
    <glyph glyph-name="fhdotbelow" unicode="f&#x1e25;" horiz-adv-x="730" 
d="M295 182v368q0 27 -3 60q-8 74 -51 74q-31 0 -49 -36.5t-18 -108.5v-105l96 4l-30 -66h-66v-190q0 -40 4 -93q5 -47 37 -90h-10q-29 0 -49 1q-40 2 -42 2q-7 0 -37.5 -1.5t-43.5 -1.5h-11q32 45 33 90q2 80 2 93v147q0 30 -7.5 46.5t-30.5 33.5l7 7q19 19 28 53
q2 8 7 37.5t7 37.5q21 97 73 148t130 51q64 0 96 -20q24 9 50 21q-5 -82 -5 -181v-201q27 46 57 67.5t73 21.5q74 0 112 -60q23 -38 23 -97v-112q0 -13 2 -93q2 -50 34 -90h-11q-13 0 -42 1.5t-36 1.5t-35.5 -1.5t-40.5 -1.5h-13q21 34 23 90q2 80 2 93v109q0 34 -17 53
t-48 19q-38 0 -60.5 -24t-22.5 -63v-94q0 -13 2 -93q2 -53 24 -90h-13q-12 0 -39 1.5t-34 1.5t-37.5 -1.5t-42.5 -1.5h-12q32 39 33 90q2 80 2 93zM582 -139l-98 -97l-97 97l97 98z" />
    <glyph glyph-name="ffhdotbelow" unicode="ff&#x1e25;" horiz-adv-x="968" 
d="M295 182v115q0 44 -12.5 59.5t-49.5 15.5h-59v-190q0 -71 8 -111.5t33 -71.5h-10q-29 0 -49 1q-40 2 -42 2q-7 0 -37.5 -1.5t-43.5 -1.5h-11q16 24 24 56q8 29 10 55q1 16 1 72v147q0 30 -7.5 46.5t-30.5 33.5l7 7q19 19 25 43l7 23q2 6 5 31t5 31q18 96 60.5 147.5
t102.5 51.5q46 0 76 -11q6 -26 6 -60q0 -57 -31 -100q-32 58 -49 77.5t-35 19.5q-29 0 -29 -47q0 -3 2 -65q3 -47 3 -88v-35h121q6 83 11 110q46 199 203 199q64 0 96 -20q24 9 50 21q-5 -82 -5 -181v-201q27 46 57 67.5t73 21.5q74 0 112 -60q23 -38 23 -97v-112
q0 -13 2 -93q2 -50 34 -90h-11q-13 0 -42 1.5t-36 1.5t-35.5 -1.5t-40.5 -1.5h-13q21 34 23 90q2 80 2 93v109q0 34 -17 53t-48 19q-38 0 -60.5 -24t-22.5 -63v-94q0 -13 2 -93q2 -53 24 -90h-13q-12 0 -39 1.5t-34 1.5t-37.5 -1.5t-42.5 -1.5h-12q32 39 33 90q2 80 2 93
v368q0 27 -3 60q-8 74 -51 74q-31 0 -49 -36.5t-18 -108.5v-105l96 4l-30 -66h-66v-190q0 -40 4 -93q5 -47 37 -90h-10q-29 0 -49 1q-40 2 -42 2q-7 0 -37.5 -1.5t-43.5 -1.5h-11q32 45 33 90q2 80 2 93zM819 -139l-98 -97l-97 97l97 98z" />
    <glyph glyph-name="longshdotbelow" unicode="&#x17f;&#x1e25;" horiz-adv-x="730" 
d="M295 182v368q0 27 -3 60q-8 74 -51 74q-31 0 -49 -36.5t-18 -108.5v-357q0 -40 4 -93q5 -47 37 -90h-10q-29 0 -49 1q-40 2 -42 2q-7 0 -37.5 -1.5t-43.5 -1.5h-11q32 45 33 90q2 80 2 93v147q0 30 -7.5 46.5t-30.5 33.5l7 7q19 19 28 53q2 8 7 37.5t7 37.5q21 97 73 148
t130 51q64 0 96 -20q24 9 50 21q-5 -82 -5 -181v-201q27 46 57 67.5t73 21.5q74 0 112 -60q23 -38 23 -97v-112q0 -13 2 -93q2 -50 34 -90h-11q-13 0 -42 1.5t-36 1.5t-35.5 -1.5t-40.5 -1.5h-13q21 34 23 90q2 80 2 93v109q0 34 -17 53t-48 19q-38 0 -60.5 -24t-22.5 -63
v-94q0 -13 2 -93q2 -53 24 -90h-13q-12 0 -39 1.5t-34 1.5t-37.5 -1.5t-42.5 -1.5h-12q32 39 33 90q2 80 2 93zM582 -139l-98 -97l-97 97l97 98z" />
    <glyph glyph-name="fidotbelow" unicode="f&#x1ecb;" horiz-adv-x="466" 
d="M412 270v-88q0 -13 2 -93q2 -53 24 -90h-13q-12 0 -39 1.5t-34 1.5t-37.5 -1.5t-42.5 -1.5h-12q32 39 33 90q2 80 2 93v37q0 51 -3 94q-2 32 -17.5 45.5t-52.5 13.5h-48v-190q0 -40 4 -93q5 -47 37 -90h-10q-29 0 -49 1q-40 2 -42 2q-7 0 -37.5 -1.5t-43.5 -1.5h-11
q32 45 33 90q2 80 2 93v147q0 30 -7.5 46.5t-30.5 33.5l7 7q19 19 28 53q2 8 7 37.5t7 37.5q21 95 75 147t133 52q82 0 134 -21q7 -25 7 -64q0 -73 -53 -123q-40 89 -59 116q-23 33 -52 33q-79 0 -79 -170v-80h115q63 0 128 17q-5 -117 -5 -181zM449 -139l-98 -97l-97 97
l97 98z" />
    <glyph glyph-name="ffidotbelow" unicode="ff&#x1ecb;" horiz-adv-x="704" 
d="M295 182v115q0 44 -12.5 59.5t-49.5 15.5h-59v-190q0 -71 8 -111.5t33 -71.5h-10q-29 0 -49 1q-40 2 -42 2q-7 0 -37.5 -1.5t-43.5 -1.5h-11q16 24 24 56q8 29 10 55q1 16 1 72v147q0 30 -7.5 46.5t-30.5 33.5l7 7q19 19 25 43l7 23q2 6 5 31t5 31q18 96 60.5 147.5
t102.5 51.5q46 0 76 -11q6 -26 6 -60q0 -57 -31 -100q-32 58 -49 77.5t-35 19.5q-29 0 -29 -47q0 -3 2 -65q3 -47 3 -88v-35h121q6 83 11 110q22 96 75.5 147.5t132.5 51.5q82 0 134 -21q7 -25 7 -64q0 -73 -53 -123q-40 89 -59 116q-23 33 -52 33q-79 0 -79 -170v-80h115
q63 0 128 17q-5 -117 -5 -181v-88q0 -13 2 -93q2 -53 24 -90h-13q-12 0 -39 1.5t-34 1.5t-37.5 -1.5t-42.5 -1.5h-12q32 39 33 90q2 80 2 93v37q0 51 -3 94q-2 32 -17.5 45.5t-52.5 13.5h-48v-190q0 -40 4 -93q5 -47 37 -90h-10q-29 0 -49 1q-40 2 -42 2q-7 0 -37.5 -1.5
t-43.5 -1.5h-11q32 45 33 90q2 80 2 93zM686 -139l-98 -97l-97 97l97 98z" />
    <glyph glyph-name="longsidotbelow" unicode="&#x17f;&#x1ecb;" horiz-adv-x="466" 
d="M174 514v-332q0 -40 4 -93q5 -47 37 -90h-10q-29 0 -49 1q-40 2 -42 2q-7 0 -37.5 -1.5t-43.5 -1.5h-11q32 45 33 90q2 80 2 93v147q0 30 -7.5 46.5t-30.5 33.5l7 7q19 19 28 53q2 8 7 37.5t7 37.5q21 95 75 147t133 52q82 0 134 -21q7 -25 7 -64q0 -73 -53 -123
q-40 89 -59 116q-23 33 -52 33q-79 0 -79 -170zM412 263v-81q0 -13 2 -93q2 -53 24 -90h-13q-12 0 -39 1.5t-34 1.5t-37.5 -1.5t-42.5 -1.5h-12q32 39 33 90q2 80 2 93v37q0 57 -3 86q-3 28 -11 43t-28 32q93 33 164 64q-5 -93 -5 -181zM449 -139l-98 -97l-97 97l97 98z" />
    <glyph glyph-name="fidblgrave" unicode="f&#x209;" horiz-adv-x="495" 
d="M317 735l17 -235l-78 116q-35 53 -58 53q-29 0 -29 -47q0 -3 2 -65q3 -47 3 -88v-35h144q63 0 128 17q-5 -117 -5 -181v-88q0 -13 2 -93q1 -53 24 -90h-13q-12 0 -39 1.5t-34 1.5t-37.5 -1.5t-42.5 -1.5h-12q31 39 33 90q2 80 2 93v37q0 51 -3 94q-2 32 -17.5 45.5
t-52.5 13.5h-77v-190q0 -40 4 -93q5 -47 37 -90h-10q-29 0 -49 1q-40 2 -42 2q-7 0 -37.5 -1.5t-43.5 -1.5h-11q32 45 33 90q2 80 2 93v147q0 30 -7.5 46.5t-30.5 33.5l7 7q19 19 25 43l7 23q2 6 5 31t5 31q18 96 60.5 147.5t102.5 51.5q49 0 86 -8zM339 709l122 40l18 -249
z" />
    <glyph glyph-name="ffidblgrave" unicode="ff&#x209;" horiz-adv-x="733" 
d="M469 743q49 0 86 -8l17 -235l-78 116q-35 53 -58 53q-29 0 -29 -47q0 -3 2 -65q3 -47 3 -88v-35h144q63 0 128 17q-5 -117 -5 -181v-88q0 -13 2 -93q1 -53 24 -90h-13q-12 0 -39 1.5t-34 1.5t-37.5 -1.5t-42.5 -1.5h-12q31 39 33 90q2 80 2 93v37q0 51 -3 94
q-2 32 -17.5 45.5t-52.5 13.5h-77v-190q0 -71 8 -111.5t33 -71.5h-10q-29 0 -49 1q-40 2 -42 2q-7 0 -37.5 -1.5t-43.5 -1.5h-11q16 24 24 56q8 29 10 55q1 16 1 72v115q0 44 -12.5 59.5t-49.5 15.5h-59v-190q0 -71 8 -111.5t33 -71.5h-10q-29 0 -49 1q-40 2 -42 2
q-7 0 -37.5 -1.5t-43.5 -1.5h-11q16 24 24 56q8 29 10 55q1 16 1 72v147q0 30 -7.5 46.5t-30.5 33.5l7 7q19 19 25 43l7 23q2 6 5 31t5 31q18 96 60.5 147.5t102.5 51.5q46 0 76 -11q6 -26 6 -60q0 -57 -31 -100q-32 58 -49 77.5t-35 19.5q-29 0 -29 -47q0 -3 2 -65
q3 -47 3 -88v-35h121q3 69 11 110q19 96 61 147.5t102 51.5zM577 709l122 40l18 -249z" />
    <glyph glyph-name="longsidblgrave" unicode="&#x17f;&#x209;" horiz-adv-x="495" 
d="M174 469v-287q0 -40 4 -93q5 -47 37 -90h-10q-29 0 -49 1q-40 2 -42 2q-7 0 -37.5 -1.5t-43.5 -1.5h-11q32 45 33 90q2 80 2 93v147q0 30 -7.5 46.5t-30.5 33.5l7 7q19 19 25 43l7 23q2 6 5 31t5 31q18 96 60.5 147.5t102.5 51.5q49 0 86 -8l17 -235l-78 116
q-35 53 -58 53q-29 0 -29 -47q0 -3 2 -65q3 -47 3 -88zM339 709l122 40l18 -249zM441 263v-81q0 -13 2 -93q1 -53 24 -90h-13q-12 0 -39 1.5t-34 1.5t-37.5 -1.5t-42.5 -1.5h-12q31 39 33 90q2 80 2 93v37q0 57 -3 86q-3 28 -11 43t-28 32q93 33 164 64q-5 -93 -5 -181z" />
    <glyph glyph-name="fiinvbreve" unicode="f&#x20b;" horiz-adv-x="582" 
d="M68 544q18 96 60.5 147.5t102.5 51.5q46 0 76 -11q6 -26 6 -60q0 -57 -31 -100q-32 58 -49 77.5t-35 19.5q-29 0 -29 -47q0 -3 2 -65q3 -47 3 -88v-35q37 1 116 4l-30 -66h-86v-190q0 -40 4 -93q5 -47 37 -90h-10q-29 0 -49 1q-40 2 -42 2q-7 0 -37.5 -1.5t-43.5 -1.5
h-11q32 45 33 90q2 80 2 93v147q0 30 -7.5 46.5t-30.5 33.5l7 7q19 19 25 43l7 23q2 6 5 31t5 31zM528 263v-81q0 -13 2 -93q2 -53 24 -90h-13q-12 0 -39 1.5t-34 1.5t-37.5 -1.5t-42.5 -1.5h-12q32 39 33 90q2 80 2 93v37q0 57 -3 86q-3 28 -11 43t-28 32q93 33 164 64
q-5 -93 -5 -181zM326 576q0 73 37.5 119.5t99.5 46.5t99.5 -46.5t37.5 -119.5q0 -33 -11 -72q-41 138 -126 138t-126 -138q-11 39 -11 72z" />
    <glyph glyph-name="ffiinvbreve" unicode="ff&#x20b;" horiz-adv-x="820" 
d="M412 469v-35q37 1 116 4l-30 -66h-86v-190q0 -71 8 -111.5t33 -71.5h-10q-29 0 -49 1q-40 2 -42 2q-7 0 -37.5 -1.5t-43.5 -1.5h-11q16 24 24 56q8 29 10 55q1 16 1 72v115q0 44 -12.5 59.5t-49.5 15.5h-59v-190q0 -71 8 -111.5t33 -71.5h-10q-29 0 -49 1q-40 2 -42 2
q-7 0 -37.5 -1.5t-43.5 -1.5h-11q16 24 24 56q8 29 10 55q1 16 1 72v147q0 30 -7.5 46.5t-30.5 33.5l7 7q19 19 25 43l7 23q2 6 5 31t5 31q18 96 60.5 147.5t102.5 51.5q46 0 76 -11q6 -26 6 -60q0 -57 -31 -100q-32 58 -49 77.5t-35 19.5q-29 0 -29 -47q0 -3 2 -65
q3 -47 3 -88v-35h121q3 69 11 110q19 96 61 147.5t102 51.5q46 0 76 -11q6 -26 6 -60q0 -57 -31 -100q-32 58 -49 77.5t-35 19.5q-29 0 -29 -47q0 -3 2 -65q3 -47 3 -88zM766 263v-81q0 -13 2 -93q2 -53 24 -90h-13q-12 0 -39 1.5t-34 1.5t-37.5 -1.5t-42.5 -1.5h-12
q32 39 33 90q2 80 2 93v37q0 57 -3 86q-3 28 -11 43t-28 32q93 33 164 64q-5 -93 -5 -181zM564 576q0 73 37.5 119.5t99.5 46.5t99.5 -46.5t37.5 -119.5q0 -33 -11 -72q-41 138 -126 138t-126 -138q-11 39 -11 72z" />
    <glyph glyph-name="longsiinvbreve" unicode="&#x17f;&#x20b;" horiz-adv-x="582" 
d="M528 263v-81q0 -13 2 -93q2 -53 24 -90h-13q-12 0 -39 1.5t-34 1.5t-37.5 -1.5t-42.5 -1.5h-12q32 39 33 90q2 80 2 93v37q0 57 -3 86q-3 28 -11 43t-28 32q93 33 164 64q-5 -93 -5 -181zM326 576q0 73 37.5 119.5t99.5 46.5t99.5 -46.5t37.5 -119.5q0 -33 -11 -72
q-41 138 -126 138t-126 -138q-11 39 -11 72zM68 544q18 96 60.5 147.5t102.5 51.5q46 0 76 -11q6 -26 6 -60q0 -57 -31 -100q-32 58 -49 77.5t-35 19.5q-29 0 -29 -47q0 -3 2 -65q3 -47 3 -88v-287q0 -40 4 -93q5 -47 37 -90h-10q-29 0 -49 1q-40 2 -42 2q-7 0 -37.5 -1.5
t-43.5 -1.5h-11q32 45 33 90q2 80 2 93v147q0 30 -7.5 46.5t-30.5 33.5l7 7q19 19 25 43l7 23q2 6 5 31t5 31z" />
    <glyph glyph-name="fodblgrave" unicode="f&#x20d;" horiz-adv-x="769" 
d="M68 544q18 96 60.5 147.5t102.5 51.5q46 0 76 -11q6 -26 6 -60q0 -57 -31 -100q-32 58 -49 77.5t-35 19.5q-29 0 -29 -47q0 -3 2 -65q3 -47 3 -88v-35q37 1 116 4l-30 -66h-86v-190q0 -40 4 -93q5 -47 37 -90h-10q-29 0 -49 1q-40 2 -42 2q-7 0 -37.5 -1.5t-43.5 -1.5
h-11q32 45 33 90q2 80 2 93v147q0 30 -7.5 46.5t-30.5 33.5l7 7q19 19 25 43l7 23q2 6 5 31t5 31zM513 393q-50 0 -79.5 -44t-29.5 -124q0 -87 31.5 -135.5t86.5 -48.5q49 0 77.5 44.5t28.5 124.5q0 83 -34 132q-33 51 -81 51zM276 217q0 97 69 165q69 69 171 69
q106 0 173 -67q68 -68 68 -167q0 -98 -68 -166t-168 -68q-109 0 -177 67q-68 68 -68 167zM479 709l122 40l18 -249zM334 709l122 40l18 -249z" />
    <glyph glyph-name="ffodblgrave" unicode="ff&#x20d;" horiz-adv-x="1007" 
d="M412 469v-35q37 1 116 4l-30 -66h-86v-190q0 -71 8 -111.5t33 -71.5h-10q-29 0 -49 1q-40 2 -42 2q-7 0 -37.5 -1.5t-43.5 -1.5h-11q16 24 24 56q8 29 10 55q1 16 1 72v115q0 44 -12.5 59.5t-49.5 15.5h-59v-190q0 -71 8 -111.5t33 -71.5h-10q-29 0 -49 1q-40 2 -42 2
q-7 0 -37.5 -1.5t-43.5 -1.5h-11q16 24 24 56q8 29 10 55q1 16 1 72v147q0 30 -7.5 46.5t-30.5 33.5l7 7q19 19 25 43l7 23q2 6 5 31t5 31q18 96 60.5 147.5t102.5 51.5q46 0 76 -11q6 -26 6 -60q0 -57 -31 -100q-32 58 -49 77.5t-35 19.5q-29 0 -29 -47q0 -3 2 -65
q3 -47 3 -88v-35h121q3 69 11 110q19 96 61 147.5t102 51.5q46 0 76 -11q6 -26 6 -60q0 -57 -31 -100q-32 58 -49 77.5t-35 19.5q-29 0 -29 -47q0 -3 2 -65q3 -47 3 -88zM751 393q-50 0 -79.5 -44t-29.5 -124q0 -87 31.5 -135.5t86.5 -48.5q49 0 77.5 44.5t28.5 124.5
q0 83 -34 132q-33 51 -81 51zM514 217q0 97 69 165q69 69 171 69q106 0 173 -67q68 -68 68 -167q0 -98 -68 -166t-168 -68q-109 0 -177 67q-68 68 -68 167zM717 709l122 40l18 -249zM572 709l122 40l18 -249z" />
    <glyph glyph-name="longsodblgrave" unicode="&#x17f;&#x20d;" horiz-adv-x="769" 
d="M513 393q-50 0 -79.5 -44t-29.5 -124q0 -87 31.5 -135.5t86.5 -48.5q49 0 77.5 44.5t28.5 124.5q0 83 -34 132q-33 51 -81 51zM276 217q0 97 69 165q69 69 171 69q106 0 173 -67q68 -68 68 -167q0 -98 -68 -166t-168 -68q-109 0 -177 67q-68 68 -68 167zM479 709l122 40
l18 -249zM334 709l122 40l18 -249zM68 544q18 96 60.5 147.5t102.5 51.5q46 0 76 -11q6 -26 6 -60q0 -57 -31 -100q-32 58 -49 77.5t-35 19.5q-29 0 -29 -47q0 -3 2 -65q3 -47 3 -88v-287q0 -40 4 -93q5 -47 37 -90h-10q-29 0 -49 1q-40 2 -42 2q-7 0 -37.5 -1.5t-43.5 -1.5
h-11q32 45 33 90q2 80 2 93v147q0 30 -7.5 46.5t-30.5 33.5l7 7q19 19 25 43l7 23q2 6 5 31t5 31z" />
    <glyph glyph-name="frdblgrave" unicode="f&#x211;" horiz-adv-x="622" 
d="M68 544q18 96 60.5 147.5t102.5 51.5q46 0 76 -11q6 -26 6 -60q0 -57 -31 -100q-32 58 -49 77.5t-35 19.5q-29 0 -29 -47q0 -3 2 -65q3 -47 3 -88v-35q37 1 116 4l-30 -66h-86v-190q0 -40 4 -93q5 -47 37 -90h-10q-29 0 -49 1q-40 2 -42 2q-7 0 -37.5 -1.5t-43.5 -1.5
h-11q32 45 33 90q2 80 2 93v147q0 30 -7.5 46.5t-30.5 33.5l7 7q19 19 25 43l7 23q2 6 5 31t5 31zM452 218v-36q0 -13 2 -93q2 -53 24 -90h-13q-12 0 -39 1.5t-34 1.5t-37.5 -1.5t-42.5 -1.5h-12q32 39 33 90q2 80 2 93v37q0 57 -3 86q-4 53 -39 75q83 28 164 64
q-7 -45 -7 -105q42 112 114 112q33 0 58 -11q5 -25 5 -59q0 -69 -36 -115q-18 37 -40.5 57.5t-44.5 20.5q-13 2 -24.5 -9t-20.5 -41t-9 -76zM466 709l122 40l18 -249zM321 709l122 40l18 -249z" />
    <glyph glyph-name="ffrdblgrave" unicode="ff&#x211;" horiz-adv-x="860" 
d="M412 469v-35q37 1 116 4l-30 -66h-86v-190q0 -71 8 -111.5t33 -71.5h-10q-29 0 -49 1q-40 2 -42 2q-7 0 -37.5 -1.5t-43.5 -1.5h-11q16 24 24 56q8 29 10 55q1 16 1 72v115q0 44 -12.5 59.5t-49.5 15.5h-59v-190q0 -71 8 -111.5t33 -71.5h-10q-29 0 -49 1q-40 2 -42 2
q-7 0 -37.5 -1.5t-43.5 -1.5h-11q16 24 24 56q8 29 10 55q1 16 1 72v147q0 30 -7.5 46.5t-30.5 33.5l7 7q19 19 25 43l7 23q2 6 5 31t5 31q18 96 60.5 147.5t102.5 51.5q46 0 76 -11q6 -26 6 -60q0 -57 -31 -100q-32 58 -49 77.5t-35 19.5q-29 0 -29 -47q0 -3 2 -65
q3 -47 3 -88v-35h121q3 69 11 110q19 96 61 147.5t102 51.5q46 0 76 -11q6 -26 6 -60q0 -57 -31 -100q-32 58 -49 77.5t-35 19.5q-29 0 -29 -47q0 -3 2 -65q3 -47 3 -88zM690 218v-36q0 -13 2 -93q2 -53 24 -90h-13q-12 0 -39 1.5t-34 1.5t-37.5 -1.5t-42.5 -1.5h-12
q32 39 33 90q2 80 2 93v37q0 57 -3 86q-4 53 -39 75q83 28 164 64q-7 -45 -7 -105q42 112 114 112q33 0 58 -11q5 -25 5 -59q0 -69 -36 -115q-18 37 -40.5 57.5t-44.5 20.5q-13 2 -24.5 -9t-20.5 -41t-9 -76zM704 709l122 40l18 -249zM559 709l122 40l18 -249z" />
    <glyph glyph-name="longsrdblgrave" unicode="&#x17f;&#x211;" horiz-adv-x="622" 
d="M68 544q18 96 60.5 147.5t102.5 51.5q46 0 76 -11q6 -26 6 -60q0 -57 -31 -100q-32 58 -49 77.5t-35 19.5q-29 0 -29 -47q0 -3 2 -65q3 -47 3 -88v-287q0 -40 4 -93q5 -47 37 -90h-10q-29 0 -49 1q-40 2 -42 2q-7 0 -37.5 -1.5t-43.5 -1.5h-11q32 45 33 90q2 80 2 93v147
q0 30 -7.5 46.5t-30.5 33.5l7 7q19 19 25 43l7 23q2 6 5 31t5 31zM452 218v-36q0 -13 2 -93q2 -53 24 -90h-13q-12 0 -39 1.5t-34 1.5t-37.5 -1.5t-42.5 -1.5h-12q32 39 33 90q2 80 2 93v37q0 57 -3 86q-4 53 -39 75q83 28 164 64q-7 -45 -7 -105q42 112 114 112
q33 0 58 -11q5 -25 5 -59q0 -69 -36 -115q-18 37 -40.5 57.5t-44.5 20.5q-13 2 -24.5 -9t-20.5 -41t-9 -76zM466 709l122 40l18 -249zM321 709l122 40l18 -249z" />
    <glyph glyph-name="frinvbreve" unicode="f&#x213;" horiz-adv-x="612" 
d="M68 544q18 96 60.5 147.5t102.5 51.5q46 0 76 -11q6 -26 6 -60q0 -57 -31 -100q-32 58 -49 77.5t-35 19.5q-29 0 -29 -47q0 -3 2 -65q3 -47 3 -88v-35q37 1 116 4l-30 -66h-86v-190q0 -40 4 -93q5 -47 37 -90h-10q-29 0 -49 1q-40 2 -42 2q-7 0 -37.5 -1.5t-43.5 -1.5
h-11q32 45 33 90q2 80 2 93v147q0 30 -7.5 46.5t-30.5 33.5l7 7q19 19 25 43l7 23q2 6 5 31t5 31zM442 218v-36q0 -13 2 -93q2 -53 24 -90h-13q-12 0 -39 1.5t-34 1.5t-37.5 -1.5t-42.5 -1.5h-12q32 39 33 90q2 80 2 93v37q0 57 -3 86q-4 53 -39 75q83 28 164 64
q-7 -45 -7 -105q42 112 114 112q33 0 58 -11q5 -25 5 -59q0 -69 -36 -115q-18 37 -40.5 57.5t-44.5 20.5q-13 2 -24.5 -9t-20.5 -41t-9 -76zM336 576q0 73 37.5 119.5t99.5 46.5t99.5 -46.5t37.5 -119.5q0 -33 -11 -72q-41 138 -126 138t-126 -138q-11 39 -11 72z" />
    <glyph glyph-name="ffrinvbreve" unicode="ff&#x213;" horiz-adv-x="850" 
d="M412 469v-35q37 1 116 4l-30 -66h-86v-190q0 -71 8 -111.5t33 -71.5h-10q-29 0 -49 1q-40 2 -42 2q-7 0 -37.5 -1.5t-43.5 -1.5h-11q16 24 24 56q8 29 10 55q1 16 1 72v115q0 44 -12.5 59.5t-49.5 15.5h-59v-190q0 -71 8 -111.5t33 -71.5h-10q-29 0 -49 1q-40 2 -42 2
q-7 0 -37.5 -1.5t-43.5 -1.5h-11q16 24 24 56q8 29 10 55q1 16 1 72v147q0 30 -7.5 46.5t-30.5 33.5l7 7q19 19 25 43l7 23q2 6 5 31t5 31q18 96 60.5 147.5t102.5 51.5q46 0 76 -11q6 -26 6 -60q0 -57 -31 -100q-32 58 -49 77.5t-35 19.5q-29 0 -29 -47q0 -3 2 -65
q3 -47 3 -88v-35h121q3 69 11 110q19 96 61 147.5t102 51.5q46 0 76 -11q6 -26 6 -60q0 -57 -31 -100q-32 58 -49 77.5t-35 19.5q-29 0 -29 -47q0 -3 2 -65q3 -47 3 -88zM680 218v-36q0 -13 2 -93q2 -53 24 -90h-13q-12 0 -39 1.5t-34 1.5t-37.5 -1.5t-42.5 -1.5h-12
q32 39 33 90q2 80 2 93v37q0 57 -3 86q-4 53 -39 75q83 28 164 64q-7 -45 -7 -105q42 112 114 112q33 0 58 -11q5 -25 5 -59q0 -69 -36 -115q-18 37 -40.5 57.5t-44.5 20.5q-13 2 -24.5 -9t-20.5 -41t-9 -76zM574 576q0 73 37.5 119.5t99.5 46.5t99.5 -46.5t37.5 -119.5
q0 -33 -11 -72q-41 138 -126 138t-126 -138q-11 39 -11 72z" />
    <glyph glyph-name="longsrinvbreve" unicode="&#x17f;&#x213;" horiz-adv-x="612" 
d="M442 218v-36q0 -13 2 -93q2 -53 24 -90h-13q-12 0 -39 1.5t-34 1.5t-37.5 -1.5t-42.5 -1.5h-12q32 39 33 90q2 80 2 93v37q0 57 -3 86q-4 53 -39 75q83 28 164 64q-7 -45 -7 -105q42 112 114 112q33 0 58 -11q5 -25 5 -59q0 -69 -36 -115q-18 37 -40.5 57.5t-44.5 20.5
q-13 2 -24.5 -9t-20.5 -41t-9 -76zM336 576q0 73 37.5 119.5t99.5 46.5t99.5 -46.5t37.5 -119.5q0 -33 -11 -72q-41 138 -126 138t-126 -138q-11 39 -11 72zM68 544q18 96 60.5 147.5t102.5 51.5q46 0 76 -11q6 -26 6 -60q0 -57 -31 -100q-32 58 -49 77.5t-35 19.5
q-29 0 -29 -47q0 -3 2 -65q3 -47 3 -88v-287q0 -40 4 -93q5 -47 37 -90h-10q-29 0 -49 1q-40 2 -42 2q-7 0 -37.5 -1.5t-43.5 -1.5h-11q32 45 33 90q2 80 2 93v147q0 30 -7.5 46.5t-30.5 33.5l7 7q19 19 25 43l7 23q2 6 5 31t5 31z" />
    <glyph glyph-name="fudblgrave" unicode="f&#x215;" horiz-adv-x="770" 
d="M68 544q18 96 60.5 147.5t102.5 51.5q46 0 76 -11q6 -26 6 -60q0 -57 -31 -100q-32 58 -49 77.5t-35 19.5q-29 0 -29 -47q0 -3 2 -65q3 -47 3 -88v-35q37 1 116 4l-30 -66h-86v-190q0 -40 4 -93q5 -47 37 -90h-10q-29 0 -49 1q-40 2 -42 2q-7 0 -37.5 -1.5t-43.5 -1.5
h-11q32 45 33 90q2 80 2 93v147q0 30 -7.5 46.5t-30.5 33.5l7 7q19 19 25 43l7 23q2 6 5 31t5 31zM714 257v-50q0 -57 3 -86q5 -47 39 -75l-153 -57l-3 87q-31 -50 -59.5 -72t-71.5 -22q-73 0 -110 60q-23 38 -23 97v100q0 63 -3 95q-3 44 -35 98q111 2 162 5
q-7 -111 -7 -180v-115q0 -72 63 -72q38 0 59.5 23.5t21.5 63.5v82q0 63 -3 95q-3 44 -35 98q111 2 162 5q-7 -111 -7 -180zM484 709l122 40l18 -249zM339 709l122 40l18 -249z" />
    <glyph glyph-name="ffudblgrave" unicode="ff&#x215;" horiz-adv-x="1008" 
d="M412 469v-35q37 1 116 4l-30 -66h-86v-190q0 -71 8 -111.5t33 -71.5h-10q-29 0 -49 1q-40 2 -42 2q-7 0 -37.5 -1.5t-43.5 -1.5h-11q16 24 24 56q8 29 10 55q1 16 1 72v115q0 44 -12.5 59.5t-49.5 15.5h-59v-190q0 -71 8 -111.5t33 -71.5h-10q-29 0 -49 1q-40 2 -42 2
q-7 0 -37.5 -1.5t-43.5 -1.5h-11q16 24 24 56q8 29 10 55q1 16 1 72v147q0 30 -7.5 46.5t-30.5 33.5l7 7q19 19 25 43l7 23q2 6 5 31t5 31q18 96 60.5 147.5t102.5 51.5q46 0 76 -11q6 -26 6 -60q0 -57 -31 -100q-32 58 -49 77.5t-35 19.5q-29 0 -29 -47q0 -3 2 -65
q3 -47 3 -88v-35h121q3 69 11 110q19 96 61 147.5t102 51.5q46 0 76 -11q6 -26 6 -60q0 -57 -31 -100q-32 58 -49 77.5t-35 19.5q-29 0 -29 -47q0 -3 2 -65q3 -47 3 -88zM952 257v-50q0 -57 3 -86q5 -47 39 -75l-153 -57l-3 87q-31 -50 -59.5 -72t-71.5 -22q-73 0 -110 60
q-23 38 -23 97v100q0 63 -3 95q-3 44 -35 98q111 2 162 5q-7 -111 -7 -180v-115q0 -72 63 -72q38 0 59.5 23.5t21.5 63.5v82q0 63 -3 95q-3 44 -35 98q111 2 162 5q-7 -111 -7 -180zM722 709l122 40l18 -249zM577 709l122 40l18 -249z" />
    <glyph glyph-name="longsudblgrave" unicode="&#x17f;&#x215;" horiz-adv-x="770" 
d="M714 257v-50q0 -57 3 -86q5 -47 39 -75l-153 -57l-3 87q-31 -50 -59.5 -72t-71.5 -22q-73 0 -110 60q-23 38 -23 97v100q0 63 -3 95q-3 44 -35 98q111 2 162 5q-7 -111 -7 -180v-115q0 -72 63 -72q38 0 59.5 23.5t21.5 63.5v82q0 63 -3 95q-3 44 -35 98q111 2 162 5
q-7 -111 -7 -180zM484 709l122 40l18 -249zM339 709l122 40l18 -249zM68 544q18 96 60.5 147.5t102.5 51.5q46 0 76 -11q6 -26 6 -60q0 -57 -31 -100q-32 58 -49 77.5t-35 19.5q-29 0 -29 -47q0 -3 2 -65q3 -47 3 -88v-287q0 -40 4 -93q5 -47 37 -90h-10q-29 0 -49 1
q-40 2 -42 2q-7 0 -37.5 -1.5t-43.5 -1.5h-11q32 45 33 90q2 80 2 93v147q0 30 -7.5 46.5t-30.5 33.5l7 7q19 19 25 43l7 23q2 6 5 31t5 31z" />
    <glyph glyph-name="fytilde" unicode="f&#x1ef9;" horiz-adv-x="748" 
d="M68 544q18 96 60.5 147.5t102.5 51.5q46 0 76 -11q6 -26 6 -60q0 -57 -31 -100q-32 58 -49 77.5t-35 19.5q-29 0 -29 -47q0 -3 2 -65q3 -47 3 -88v-35q37 1 116 4l-30 -66h-86v-190q0 -40 4 -93q5 -47 37 -90h-10q-29 0 -49 1q-40 2 -42 2q-7 0 -37.5 -1.5t-43.5 -1.5
h-11q32 45 33 90q2 80 2 93v147q0 30 -7.5 46.5t-30.5 33.5l7 7q19 19 25 43l7 23q2 6 5 31t5 31zM462 -100l32 75l-116 276q-2 5 -18.5 45t-24.5 56q-5 10 -18 39t-21 42h12q2 0 44 -2q21 -1 46 -1q10 0 39 1.5t37 1.5h13q-19 -42 -19 -66q0 -30 32 -114l53 -135l53 139
q22 58 22 97t-21 79h12q9 0 31.5 -1.5t27.5 -1.5t28 1.5t32 1.5h15q-20 -33 -50 -93q-21 -44 -39 -89l-149 -373q-30 -75 -65 -107.5t-84 -32.5q-33 0 -72 17q-7 24 -7 56q0 36 18 78q44 -43 96 -43q39 0 61 54zM533 599q-44 23 -66 23q-39 0 -79 -29v8q0 50 29 80t70 30
q31 0 66 -19q44 -23 66 -23q39 0 79 29v-8q0 -50 -29 -80t-70 -30q-31 0 -66 19z" />
    <glyph glyph-name="ffytilde" unicode="ff&#x1ef9;" horiz-adv-x="986" 
d="M412 469v-35q37 1 116 4l-30 -66h-86v-190q0 -71 8 -111.5t33 -71.5h-10q-29 0 -49 1q-40 2 -42 2q-7 0 -37.5 -1.5t-43.5 -1.5h-11q16 24 24 56q8 29 10 55q1 16 1 72v115q0 44 -12.5 59.5t-49.5 15.5h-59v-190q0 -71 8 -111.5t33 -71.5h-10q-29 0 -49 1q-40 2 -42 2
q-7 0 -37.5 -1.5t-43.5 -1.5h-11q16 24 24 56q8 29 10 55q1 16 1 72v147q0 30 -7.5 46.5t-30.5 33.5l7 7q19 19 25 43l7 23q2 6 5 31t5 31q18 96 60.5 147.5t102.5 51.5q46 0 76 -11q6 -26 6 -60q0 -57 -31 -100q-32 58 -49 77.5t-35 19.5q-29 0 -29 -47q0 -3 2 -65
q3 -47 3 -88v-35h121q3 69 11 110q19 96 61 147.5t102 51.5q46 0 76 -11q6 -26 6 -60q0 -57 -31 -100q-32 58 -49 77.5t-35 19.5q-29 0 -29 -47q0 -3 2 -65q3 -47 3 -88zM700 -100l32 75l-116 276q-2 5 -18.5 45t-24.5 56q-5 10 -18 39t-21 42h12q2 0 44 -2q21 -1 46 -1
q10 0 39 1.5t37 1.5h13q-19 -42 -19 -66q0 -30 32 -114l53 -135l53 139q22 58 22 97t-21 79h12q9 0 31.5 -1.5t27.5 -1.5t28 1.5t32 1.5h15q-20 -33 -50 -93q-21 -44 -39 -89l-149 -373q-30 -75 -65 -107.5t-84 -32.5q-33 0 -72 17q-7 24 -7 56q0 36 18 78q44 -43 96 -43
q39 0 61 54zM771 599q-44 23 -66 23q-39 0 -79 -29v8q0 50 29 80t70 30q31 0 66 -19q44 -23 66 -23q39 0 79 29v-8q0 -50 -29 -80t-70 -30q-31 0 -66 19z" />
    <glyph glyph-name="longsytilde" unicode="&#x17f;&#x1ef9;" horiz-adv-x="748" 
d="M462 -100l32 75l-116 276q-2 5 -18.5 45t-24.5 56q-5 10 -18 39t-21 42h12q2 0 44 -2q21 -1 46 -1q10 0 39 1.5t37 1.5h13q-19 -42 -19 -66q0 -30 32 -114l53 -135l53 139q22 58 22 97t-21 79h12q9 0 31.5 -1.5t27.5 -1.5t28 1.5t32 1.5h15q-20 -33 -50 -93
q-21 -44 -39 -89l-149 -373q-30 -75 -65 -107.5t-84 -32.5q-33 0 -72 17q-7 24 -7 56q0 36 18 78q44 -43 96 -43q39 0 61 54zM533 599q-44 23 -66 23q-39 0 -79 -29v8q0 50 29 80t70 30q31 0 66 -19q44 -23 66 -23q39 0 79 29v-8q0 -50 -29 -80t-70 -30q-31 0 -66 19z
M68 544q18 96 60.5 147.5t102.5 51.5q46 0 76 -11q6 -26 6 -60q0 -57 -31 -100q-32 58 -49 77.5t-35 19.5q-29 0 -29 -47q0 -3 2 -65q3 -47 3 -88v-287q0 -40 4 -93q5 -47 37 -90h-10q-29 0 -49 1q-40 2 -42 2q-7 0 -37.5 -1.5t-43.5 -1.5h-11q32 45 33 90q2 80 2 93v147
q0 30 -7.5 46.5t-30.5 33.5l7 7q19 19 25 43l7 23q2 6 5 31t5 31z" />
    <glyph glyph-name=".notdef" horiz-adv-x="300" 
 />
    <glyph glyph-name=".null" horiz-adv-x="0" 
 />
    <glyph glyph-name="nonmarkingreturn" horiz-adv-x="333" 
 />
    <glyph glyph-name="VT" horiz-adv-x="1102" 
d="M493 484l-194 -515l-201 515q-2 5 -19 48q-11 33 -23 59q-30 70 -54 112h22q8 0 48 -2q21 -1 39 -1q5 0 33.5 1.5t40.5 1.5h21q-19 -42 -19 -67q0 -37 42 -145l102 -263l98 263q32 87 32 139q0 26 -27 73h14q4 0 12 -0.5t23 -1t28 -0.5q33 -1 87 -1h382q76 0 115 3
q10 -73 10 -127q0 -37 -5 -72q-43 69 -75 101q-25 25 -58 36q-29 8 -52 8q-35 0 -44.5 -8.5t-11.5 -39.5q-3 -31 -3 -103v-280q0 -62 2 -108q4 -66 46 -111h-11q-35 0 -58 1q-9 0 -19.5 0.5t-15.5 1t-8 0.5t-8 -0.5t-15.5 -1t-19.5 -0.5q-22 -1 -56 -1h-12q42 45 46 111
q2 46 2 108v280q0 72 -3 103q-2 31 -11.5 39.5t-44.5 8.5q-47 0 -71 -8q-29 -10 -52 -45q-29 -47 -54 -112z" />
    <glyph glyph-name="space" unicode=" " 
 />
    <glyph glyph-name="exclam" unicode="!" 
d="M13 700h186l-93 -529zM203 73l-97 -99l-99 99l99 98z" />
    <glyph glyph-name="quotedbl" unicode="&#x22;" horiz-adv-x="377" 
d="M26 735h157l-77 -328zM193 735h157l-77 -328z" />
    <glyph glyph-name="numbersign" unicode="#" horiz-adv-x="460" 
d="M318 286h88v-56h-103l-61 -230h-60l61 230h-100l-61 -230h-59l61 230h-84v56h99l35 133h-80v56h95l60 225h59l-60 -225h100l60 225h60l-60 -225h92v-56h-107zM293 419h-100l-35 -133h100z" />
    <glyph glyph-name="dollar" unicode="$" horiz-adv-x="483" 
d="M276 -113h-54v97q-105 2 -186 34q-20 98 -20 185q0 23 1 29q45 -72 86 -123q28 -34 59 -48t80 -14q50 0 76.5 24.5t26.5 69.5t-30 76t-109 85q-100 69 -134 112q-38 47 -38 117q0 75 51.5 124.5t136.5 58.5v97h54v-96q86 -5 169 -44q3 -47 3 -86q0 -71 -10 -112
q-48 94 -81 133q-45 52 -102 52q-47 0 -75.5 -30t-28.5 -78q0 -39 39 -78q16 -15 96 -69q91 -60 125 -97q48 -52 48 -128q0 -77 -49.5 -128t-133.5 -62v-101z" />
    <glyph glyph-name="percent" unicode="%" horiz-adv-x="729" 
d="M21 579q0 69 48 116q48 48 117 48q72 0 120 -48q48 -47 48 -116t-48 -118q-48 -48 -116 -48q-73 0 -122 47q-47 47 -47 119zM582 770l46 -31l-501 -791l-46 31zM78 578q0 -52 31 -84.5t81 -32.5q46 0 76 33q31 32 31 84t-31 83q-32 33 -78 33q-48 0 -79 -32.5t-31 -83.5z
M375 150q0 70 48 116q48 48 117 48q72 0 120 -48q48 -46 48 -116q0 -68 -48 -118q-48 -48 -116 -48q-73 0 -122 47q-47 47 -47 119zM432 149q0 -52 31 -84.5t81 -32.5q46 0 76 33q31 32 31 84t-31 83q-32 33 -78 33q-48 0 -79 -32.5t-31 -83.5z" />
    <glyph glyph-name="ampersand" unicode="&#x26;" horiz-adv-x="766" 
d="M181 379q-41 -80 -41 -151q0 -68 41.5 -110.5t114.5 -42.5q82 0 144 60l-246 278q-61 70 -61 142q0 70 52 115q52 46 132 46q72 0 120 -42q48 -40 48 -99q0 -52 -31.5 -81.5t-88.5 -29.5q-17 0 -22 1q38 47 38 112q0 39 -20 64t-51 25q-30 0 -48 -21t-18 -57
q0 -61 57 -124l210 -230l12 22q30 56 30 92t-31 85h11q18 0 48.5 -1.5t34.5 -1.5q5 0 34 1.5t42 1.5h12l-80 -119l-27 -39l-31 -45l-21 -32l52 -57q43 -48 67 -64.5t54 -16.5q16 0 50 8q-7 -38 -36.5 -60t-72.5 -22q-79 0 -147 72l-38 41q-43 -59 -94 -85.5t-125 -26.5
q-104 0 -171 59q-66 60 -66 152q0 74 47 123q46 47 116 58z" />
    <glyph glyph-name="quotesingle" unicode="'" 
d="M26 735h157l-77 -328z" />
    <glyph glyph-name="parenleft" unicode="(" horiz-adv-x="340" 
d="M324 -180l-29 -42q-121 80 -189.5 205.5t-68.5 280.5t68.5 280.5t189.5 205.5l29 -42q-224 -165 -224 -444t224 -444z" />
    <glyph glyph-name="parenright" unicode=")" horiz-adv-x="340" 
d="M45 -222l-29 42q224 165 224 444t-224 444l29 42q121 -80 189.5 -205.5t68.5 -280.5t-68.5 -280.5t-189.5 -205.5z" />
    <glyph glyph-name="asterisk" unicode="*" horiz-adv-x="412" 
d="M154 750h103l-36 -183l164 90l31 -98l-184 -20l136 -128l-84 -59l-78 169l-78 -169l-84 59l136 128l-184 20l31 98l165 -90z" />
    <glyph glyph-name="plus" unicode="+" horiz-adv-x="460" 
d="M203 262v172h55v-172h172v-55h-172v-173h-55v173h-173v55h173z" />
    <glyph glyph-name="comma" unicode="," 
d="M202 119l-178 -316l21 364z" />
    <glyph glyph-name="hyphen" unicode="-" 
d="M210 197h-210v75h210v-75z" />
    <glyph glyph-name="period" unicode="." 
d="M203 73l-97 -99l-99 99l99 98z" />
    <glyph glyph-name="slash" unicode="/" horiz-adv-x="315" 
d="M251 754l58 -18l-246 -833l-58 18z" />
    <glyph glyph-name="zero" unicode="0" horiz-adv-x="558" 
d="M23 238q0 107 74 181t181 74q110 0 184 -74q73 -73 73 -181q0 -109 -73 -183q-74 -74 -178 -74q-114 0 -188 72q-73 73 -73 185zM129 236q0 -73 43 -119q44 -45 111 -45q62 0 104 47q43 46 43 117t-43 117q-44 47 -108 47q-63 0 -107 -47q-43 -46 -43 -117z" />
    <glyph glyph-name="one" unicode="1" horiz-adv-x="283" 
d="M201 269v-64q0 -48 2 -94q4 -69 47 -112h-15q-29 0 -52 1q-9 0 -19 0.5t-15 1t-8 0.5t-8 -0.5t-15.5 -1t-19.5 -0.5q-22 -1 -51 -1h-14q44 44 48 112q2 46 2 94v64q0 48 -2 94q-4 68 -48 112h14q7 0 51 -2q23 -1 43 -1t42 1q46 2 52 2h15q-43 -43 -47 -112q-2 -46 -2 -94
z" />
    <glyph glyph-name="two" unicode="2" horiz-adv-x="415" 
d="M194 493q84 0 127 -52q39 -45 39 -107q0 -70 -46 -120q-47 -52 -151 -120h123q70 0 138 41q-23 -81 -64 -138q-40 3 -107 3h-106q-98 0 -150 -4l34 34q126 126 165 178q42 56 42 109q0 35 -20 57t-54 22q-35 0 -64.5 -16t-66.5 -52v13q0 73 48 112q47 40 113 40z" />
    <glyph glyph-name="three" unicode="3" horiz-adv-x="370" 
d="M163 493q81 0 123 -44q42 -43 42 -102q0 -47 -27 -81t-90 -63q62 -18 100.5 -70.5t38.5 -123.5q0 -102 -79 -169q-79 -69 -230 -69q-4 0 -56 5q128 37 185.5 86t57.5 121q0 68 -45 106t-140 51l27 18q79 53 110 87.5t31 72.5q0 34 -22 55t-60 21q-69 0 -128 -71v13
q0 76 48 116q49 41 114 41z" />
    <glyph glyph-name="four" unicode="4" horiz-adv-x="543" 
d="M546 144q-8 -69 -51 -147q-41 3 -101 3q0 -50 3 -129q3 -81 3 -100l-119 -16v245h-96q-119 0 -200 -3q80 114 137 192q46 61 120 153q75 91 155 176q-3 -90 -3 -185v-237h30q54 0 122 48zM125 96h156v212q-108 -134 -156 -212z" />
    <glyph glyph-name="five" unicode="5" horiz-adv-x="405" 
d="M36 181l47 291h183q52 0 127 5l-51 -120h-222l-14 -72q235 -52 235 -252q0 -107 -78 -174q-77 -68 -259 -95q119 69 170 126q50 55 50 118q0 72 -45 113.5t-143 59.5z" />
    <glyph glyph-name="six" unicode="6" horiz-adv-x="520" 
d="M327 453q70 0 120 -53q58 -61 58 -173q0 -101 -65 -169q-64 -67 -162 -67q-110 0 -179 81q-68 82 -68 208q0 184 123 307q124 124 361 158q-185 -105 -268 -217q-81 -110 -81 -249q0 -112 29 -171t82 -59q45 0 71.5 46t26.5 126q0 66 -31 105t-78 39q-39 0 -70 -19
q6 52 42 79.5t89 27.5z" />
    <glyph glyph-name="seven" unicode="7" horiz-adv-x="468" 
d="M354 365h-185q-46 0 -82 -25t-79 -84q2 141 42 219q40 -3 96 -3h173q96 0 162 3l-75 -157l-74 -156l-60 -130q-58 -126 -117 -279h-136q52 102 93 179q46 86 129 231q32 56 69 123t44 79z" />
    <glyph glyph-name="eight" unicode="8" horiz-adv-x="470" 
d="M179 315q-32 -66 -32 -130q0 -62 28 -98.5t73 -36.5q40 0 64 26t24 68t-26 80q-24 36 -105 92l-35 24q-115 79 -115 181q0 73 54 121q55 48 138 48q82 0 137 -44q54 -44 54 -113q0 -54 -36.5 -86.5t-102.5 -32.5q25 46 25 103q0 48 -22 78t-58 30q-31 0 -52.5 -23
t-21.5 -59q0 -66 101 -135l41 -28q79 -53 111.5 -101.5t32.5 -106.5q0 -78 -57 -130q-57 -51 -154 -51q-100 0 -162 50q-62 51 -62 128q0 59 43.5 101t114.5 45z" />
    <glyph glyph-name="nine" unicode="9" horiz-adv-x="520" 
d="M193 29q-70 0 -120 53q-58 61 -58 173q0 101 67 168q68 68 166 68q108 0 174 -75q67 -73 67 -202q0 -194 -123.5 -318t-360.5 -159q186 106 268 218q81 111 81 253q0 109 -28.5 167t-79.5 58q-45 0 -73 -47t-28 -125q0 -66 31 -105t78 -39q39 0 70 19q-6 -52 -42 -79.5
t-89 -27.5z" />
    <glyph glyph-name="colon" unicode=":" 
d="M203 73l-97 -99l-99 99l99 98zM203 360l-97 -99l-99 99l99 98z" />
    <glyph glyph-name="semicolon" unicode=";" 
d="M203 360l-97 -99l-99 99l99 98zM202 119l-178 -316l21 364z" />
    <glyph glyph-name="less" unicode="&#x3c;" horiz-adv-x="460" 
d="M430 120v-63l-410 176l410 186v-59l-281 -126z" />
    <glyph glyph-name="equal" unicode="=" horiz-adv-x="460" 
d="M30 282v55h400v-55h-400zM30 132v55h400v-55h-400z" />
    <glyph glyph-name="greater" unicode="&#x3e;" horiz-adv-x="460" 
d="M30 419l410 -186l-410 -176v63l281 114l-281 126v59z" />
    <glyph glyph-name="question" unicode="?" horiz-adv-x="304" 
d="M26 571v131q27 8 68 8q94 0 157 -75q63 -73 63 -176q0 -76 -43.5 -120t-122.5 -50l-41 -116l-55 225q94 2 138 10t57 23t14 48q0 50 -35 82t-92 32t-108 -22zM204 73l-97 -99l-99 99l99 98z" />
    <glyph glyph-name="at" unicode="@" horiz-adv-x="777" 
d="M524 271l1 -139q0 -37 37 -37q41 0 68 40.5t27 115.5q0 117 -72 191q-71 75 -188 75q-129 0 -209 -83q-78 -82 -78 -221t82 -220t219 -81q104 0 221 46q-61 -115 -230 -115q-158 0 -265 104q-106 103 -106 268q0 158 106 267q107 110 260 110q149 0 242 -98t93 -243
q0 -106 -52 -167q-51 -62 -127 -62q-93 0 -124 66q-31 -70 -108 -70q-40 0 -67 26t-27 63q0 61 63 97q44 26 130 53v15q0 31 -17 48q-17 18 -47 18q-49 0 -100 -39q-1 3 -1 15q0 49 35 79.5t92 30.5q70 0 113 -52q29 -38 29 -101zM420 181v19l-36 -16q-53 -27 -53 -62
q0 -28 29 -28q25 0 42.5 23.5t17.5 63.5z" />
    <glyph glyph-name="A" unicode="A" horiz-adv-x="595" 
d="M72 167l20 52l200 520l206 -521l19 -51l23 -56q29 -69 53 -112h-13q-18 0 -50.5 1.5t-36.5 1.5q-10 0 -43 -1.5t-48 -1.5h-13q19 37 19 65q0 31 -43 147h-207q-34 -101 -34 -139q0 -26 29 -73h-12q-13 0 -36.5 1.5t-28.5 1.5q-7 0 -31.5 -1.5t-33.5 -1.5h-10
q17 32 50 113q9 21 21 55zM343 272l-83 215l-80 -215h163z" />
    <glyph glyph-name="B" unicode="B" horiz-adv-x="547" 
d="M266 344q-15 1 -78 1v-131q0 -31 1 -56t1 -46q4 -36 19 -47.5t59 -11.5q66 0 102 38t36 110q0 137 -140 143zM263 407q111 12 111 117q0 59 -29.5 93.5t-78.5 34.5q-41 0 -57.5 -12t-18.5 -40q-2 -38 -2 -95v-102q38 0 75 4zM125 700q19 0 77 2q44 3 66 3q112 0 171 -48
t59 -130q0 -112 -139 -145q174 -36 174 -178q0 -95 -67 -151t-194 -56q-9 0 -57 3q-62 2 -84 2q-3 0 -8 -0.5t-15 -1t-18 -0.5q-21 -1 -56 -1h-11q31 41 36 111q2 46 2 108v266q0 62 -2 108q-5 70 -36 111h11q18 0 53 -1.5t38 -1.5z" />
    <glyph glyph-name="C" unicode="C" horiz-adv-x="709" 
d="M425 47q65 0 103 18q38 19 72 66q25 34 71 123q4 -25 4 -92q0 -68 -12 -129q-94 -49 -246 -49q-159 0 -276 91q-58 46 -91.5 117.5t-33.5 157.5q0 163 116 264q116 102 292 102q127 0 238 -44q3 -26 3 -77q0 -79 -13 -132q-47 99 -85 137q-53 53 -145 53q-115 0 -188 -82
t-73 -218q0 -141 77 -224q78 -82 187 -82z" />
    <glyph glyph-name="D" unicode="D" horiz-adv-x="704" 
d="M291 53q125 0 189 75.5t64 218.5q0 141 -69.5 221t-190.5 80q-55 0 -73.5 -8.5t-20.5 -36.5q-2 -40 -2 -99v-290q0 -48 3 -105q1 -35 22 -46q19 -10 78 -10zM119 700q6 0 76 2q54 3 102 3q167 0 279 -97t112 -266q0 -160 -108 -254q-106 -94 -280 -94q-64 0 -113 4t-70 4
q-3 0 -34 -1.5t-49 -1.5h-11q31 41 36 111q2 46 2 108v266q0 62 -2 108q-5 70 -36 111h11q18 0 50 -1.5t35 -1.5z" />
    <glyph glyph-name="E" unicode="E" horiz-adv-x="492" 
d="M125 2q-3 0 -38 -1.5t-53 -1.5h-11q31 41 36 111q2 46 2 108v266q0 62 -2 108q-5 70 -36 111h11q18 0 53 -1.5t38 -1.5h187q76 0 115 3q19 -79 19 -191q-50 69 -81 96q-29 24 -57 33q-27 8 -61 8q-35 0 -44.5 -8.5t-11.5 -39.5q-3 -31 -3 -103v-112q71 0 110 4
q29 3 49 14t57 42v-10q0 -13 -1.5 -42.5t-1.5 -34.5t1.5 -35.5t1.5 -43.5v-8q-24 19 -35 26q-29 23 -71 29q-28 4 -110 4v-111q0 -49 3 -109q1 -35 14.5 -46.5t49.5 -11.5q37 0 75 5q46 8 78 48q19 23 73 108q0 -122 -22 -217q-102 5 -334 5z" />
    <glyph glyph-name="F" unicode="F" horiz-adv-x="472" 
d="M189 331v-113q0 -62 2 -108q3 -40 12 -63t34 -48h-11q-35 0 -58 1q-9 0 -19 0.5t-15.5 1t-7.5 0.5q-4 0 -38 -1.5t-53 -1.5h-11q32 41 36 111q2 46 2 108v266q0 62 -2 108q-4 70 -36 111h11q19 0 53 -1.5t38 -1.5h197q76 0 115 3q19 -79 19 -191q-49 69 -81 96
q-28 24 -57 33q-27 8 -71 8q-35 0 -44.5 -8.5t-11.5 -39.5q-3 -31 -3 -103v-112q61 0 100 4q29 3 49 14t57 42v-10q0 -13 -1.5 -42.5t-1.5 -34.5t1.5 -35.5t1.5 -43.5v-8q-24 19 -35 26q-29 23 -71 29q-28 4 -100 4z" />
    <glyph glyph-name="G" unicode="G" horiz-adv-x="720" 
d="M547 133q0 50 -4 81q-4 33 -18 57.5t-46 53.5h14q13 0 52 -1.5t53 -1.5q10 0 42.5 1.5t47.5 1.5h12q-27 -44 -31 -111q-2 -34 -2 -61q0 -66 5 -118q-99 -51 -255 -51q-159 0 -276 91q-58 46 -91.5 117.5t-33.5 157.5q0 163 116 264q116 102 292 102q136 0 238 -38
q3 -40 3 -75q0 -79 -12 -125q-36 73 -77 119q-29 32 -63.5 44t-90.5 12q-116 0 -189 -82q-72 -83 -72 -218q0 -143 78 -226q78 -81 195 -81q65 0 89 19t24 68z" />
    <glyph glyph-name="H" unicode="H" horiz-adv-x="676" 
d="M615 484v-266q0 -62 2 -108q5 -70 36 -111h-12q-18 0 -51.5 1.5t-37.5 1.5t-38 -1.5t-53 -1.5h-11q32 41 36 111q2 46 2 108v118h-300v-118q0 -62 2 -108q4 -70 36 -111h-12q-18 0 -51.5 1.5t-37.5 1.5q-3 0 -38 -1.5t-53 -1.5h-11q31 41 36 111q2 46 2 108v266
q0 62 -2 108q-5 70 -36 111h11q18 0 53 -1.5t38 -1.5q4 0 37.5 1.5t51.5 1.5h12q-32 -41 -36 -111q-2 -46 -2 -108v-87h300v87q0 62 -2 108q-4 70 -36 111h11q19 0 53 -1.5t38 -1.5t37.5 1.5t51.5 1.5h12q-31 -41 -36 -111q-2 -46 -2 -108z" />
    <glyph glyph-name="I" unicode="I" horiz-adv-x="249" 
d="M188 484v-266q0 -62 2 -108q4 -70 36 -111h-12q-18 0 -51.5 1.5t-37.5 1.5q-3 0 -38 -1.5t-53 -1.5h-11q31 41 36 111q2 46 2 108v266q0 62 -2 108q-5 70 -36 111h11q18 0 53 -1.5t38 -1.5q4 0 37.5 1.5t51.5 1.5h12q-32 -41 -36 -111q-2 -46 -2 -108z" />
    <glyph glyph-name="J" unicode="J" horiz-adv-x="397" 
d="M339 484v-296q0 -96 -52 -150t-143 -54q-60 0 -99.5 33.5t-39.5 91.5v7q49 -60 109 -60q61 0 84 53q14 33 14 113v262q0 62 -2 108q-4 70 -36 111h11q19 0 53 -1.5t38 -1.5t37.5 1.5t51.5 1.5h12q-31 -41 -36 -111q-2 -46 -2 -108z" />
    <glyph glyph-name="K" unicode="K" horiz-adv-x="635" 
d="M488 590l-99 -110l-64 -72q89 -136 222 -303q66 -82 99 -113q-19 -8 -51 -8q-61 0 -107 24t-90 79q-125 154 -198 275l110 117q112 118 112 162q0 25 -22 62h9q11 0 49 -2q19 -1 39 -1q19 0 37 1q36 2 40 2h14q-59 -70 -100 -113zM189 484v-266q0 -62 2 -108
q5 -70 36 -111h-12q-18 0 -51.5 1.5t-37.5 1.5t-38 -1.5t-53 -1.5h-11q32 41 36 111q2 46 2 108v266q0 62 -2 108q-4 70 -36 111h11q19 0 53 -1.5t38 -1.5t37.5 1.5t51.5 1.5h12q-31 -41 -36 -111q-2 -46 -2 -108z" />
    <glyph glyph-name="L" unicode="L" horiz-adv-x="493" 
d="M132 2q-3 0 -8 -0.5t-15 -1t-18 -0.5q-21 -1 -56 -1h-11q32 41 36 111q2 46 2 108v266q0 62 -2 108q-4 70 -36 111h11q19 0 53 -1.5t38 -1.5t37.5 1.5t51.5 1.5h12q-31 -41 -36 -111q-2 -46 -2 -108v-264q0 -49 3 -109q2 -35 15 -47q26 -21 122 -4q48 8 77 53
q29 44 61 124q12 -49 12 -99q0 -76 -18 -141q-102 5 -329 5z" />
    <glyph glyph-name="M" unicode="M" horiz-adv-x="860" 
d="M664 553l-271 -579l-262 576l-12 -333q-1 -23 -1 -108q0 -61 36 -111q-58 3 -73 3q-11 0 -70 -3q35 50 39 111q2 16 7 109l12 266q1 15 1 57q0 58 -11 95t-38 67q67 -3 179 -3l230 -505l231 505q133 0 172 3q-38 -53 -41 -111q-2 -38 0 -83l10 -292q1 -62 4 -112
q4 -59 39 -107q-39 3 -79 3q-90 0 -129 -3q39 36 39 142q0 60 -1 77z" />
    <glyph glyph-name="N" unicode="N" horiz-adv-x="703" 
d="M61 217v261q0 66 -2 110q-4 70 -36 115q47 -3 142 -3l416 -459v243q0 62 -2 108q-5 70 -36 111h11q5 0 27.5 -1.5t31.5 -1.5q11 0 33 1.5t27 1.5h11q-32 -41 -36 -111q-2 -46 -2 -108v-328q0 -134 3 -186l-523 589v-342q0 -62 2 -108q4 -71 36 -111h-11q-5 0 -27 1.5
t-33 1.5q-9 0 -31.5 -1.5t-27.5 -1.5h-11q31 40 36 111q2 46 2 108z" />
    <glyph glyph-name="O" unicode="O" horiz-adv-x="799" 
d="M16 350q0 158 110 262q112 104 272 104q166 0 276 -105q109 -103 109 -261q0 -157 -109 -262q-110 -104 -267 -104q-173 0 -282 102t-109 264zM387 650q-97 0 -162 -77q-64 -76 -64 -212q0 -141 71 -227q72 -85 180 -85q98 0 160 81q62 82 62 210q0 137 -71 223
q-71 87 -176 87z" />
    <glyph glyph-name="P" unicode="P" horiz-adv-x="529" 
d="M189 496v-278q0 -62 2 -108q3 -40 12 -63t34 -48h-11q-35 0 -58 1q-9 0 -19 0.5t-15.5 1t-7.5 0.5q-4 0 -38 -1.5t-53 -1.5h-11q32 41 36 111q2 46 2 108v266q0 62 -2 108q-4 70 -36 111h11q19 0 53 -1.5t38 -1.5q35 0 71 1t86 1q109 0 170.5 -51t61.5 -140t-59 -140
q-58 -51 -142 -51q-75 0 -105 30q88 8 131 47t43 114q0 65 -34.5 101.5t-97.5 36.5q-33 0 -45.5 -10t-14.5 -40q-2 -42 -2 -103z" />
    <glyph glyph-name="Q" unicode="Q" horiz-adv-x="799" 
d="M11 350q0 158 110 262q112 104 272 104q167 0 276 -105q109 -103 109 -261q0 -124 -70 -216q-68 -92 -182 -130q116 -103 255 -155t320 -52q113 0 258 42q-133 -115 -365 -115q-367 0 -648 263q-149 16 -243 116q-92 100 -92 247zM382 650q-94 0 -160 -78
q-66 -76 -66 -211q0 -141 72 -227q73 -85 179 -85q99 0 160 81q62 82 62 210q0 137 -73 223q-72 87 -174 87z" />
    <glyph glyph-name="R" unicode="R" horiz-adv-x="609" 
d="M189 322v-104q0 -62 2 -108q5 -70 36 -111h-12q-18 0 -51.5 1.5t-37.5 1.5t-38 -1.5t-53 -1.5h-11q32 41 36 111q2 46 2 108v266q0 62 -2 108q-4 70 -36 111h11q19 0 53 -1.5t38 -1.5q35 0 71 1t86 1q104 0 160 -55q57 -54 57 -133q0 -120 -133 -159q102 -181 171 -267
q49 -62 82 -96q-21 -8 -54 -8q-107 0 -186 105q-57 78 -131 236q-33 -3 -60 -3zM224 381q73 0 107 30t34 103q0 60 -33.5 97.5t-84.5 37.5q-30 0 -42 -10t-14 -40q-2 -42 -2 -103v-113q12 -2 35 -2z" />
    <glyph glyph-name="S" unicode="S" horiz-adv-x="483" 
d="M151 550q0 -39 39 -78q16 -15 96 -69q91 -60 125 -97q48 -52 48 -128q0 -88 -65 -141t-166 -53q-108 0 -192 34q-20 98 -20 185q0 23 1 29q45 -72 86 -123q28 -34 59 -48t80 -14q50 0 76.5 24.5t26.5 69.5t-30 76t-109 85q-100 69 -134 112q-38 47 -38 117q0 82 62 133
q61 52 160 52q96 0 189 -45q3 -47 3 -86q0 -71 -10 -112q-48 94 -81 133q-45 52 -102 52q-47 0 -75.5 -30t-28.5 -78z" />
    <glyph glyph-name="T" unicode="T" horiz-adv-x="619" 
d="M432 649q-35 0 -44.5 -8.5t-11.5 -39.5q-3 -31 -3 -103v-280q0 -62 2 -108q4 -66 46 -111h-12q-34 0 -57 1q-9 0 -19 0.5t-15 1t-8 0.5t-8 -0.5t-15.5 -1t-19.5 -0.5q-23 -1 -58 -1h-11q42 45 46 111q2 46 2 108v280q0 72 -3 103q-2 31 -11.5 39.5t-44.5 8.5
q-23 0 -52 -8q-33 -11 -58 -36q-32 -32 -75 -101q-5 35 -5 72q0 54 10 127q39 -3 115 -3h375q76 0 115 3q10 -73 10 -127q0 -37 -5 -72q-43 69 -75 101q-25 25 -58 36q-29 8 -52 8z" />
    <glyph glyph-name="U" unicode="U" horiz-adv-x="626" 
d="M540 700q10 0 33 1.5t27 1.5h11q-31 -41 -36 -111q-2 -46 -2 -108v-232q0 -118 -72 -193q-71 -75 -189 -75q-119 0 -186 66.5t-67 186.5v247q0 62 -2 108q-5 70 -36 111h11q18 0 53 -1.5t38 -1.5q4 0 37.5 1.5t51.5 1.5h12q-32 -41 -36 -111q-2 -46 -2 -108v-250
q0 -81 41 -126.5t113 -45.5q78 0 123 51t45 143v228q0 62 -2 108q-4 70 -36 111h11q5 0 27.5 -1.5t31.5 -1.5z" />
    <glyph glyph-name="V" unicode="V" horiz-adv-x="587" 
d="M229 491l102 -263l98 263q32 87 32 139q0 26 -27 73h14q13 0 40.5 -1.5t32.5 -1.5q7 0 24 1.5t23 1.5h17q-30 -59 -51 -110l-41 -109l-194 -515l-201 515q-2 5 -19 48q-11 33 -23 59q-30 70 -54 112h22q8 0 48 -2q21 -1 39 -1q5 0 33.5 1.5t40.5 1.5h21q-19 -42 -19 -67
q0 -37 42 -145z" />
    <glyph glyph-name="W" unicode="W" horiz-adv-x="933" 
d="M585 491l99 -260l94 260q32 90 32 131q0 34 -30 81h13q13 0 41 -1.5t33 -1.5q7 0 25 1.5t26 1.5h13q-29 -52 -51 -110l-39 -109l-185 -512l-187 475l-182 -475l-191 512q-31 82 -41 107q-23 56 -53 112h13q8 0 50 -2q21 -1 41 -1q5 0 38 1.5t47 1.5h13q-19 -37 -19 -60
q0 -39 39 -148l95 -267l84 224q22 56 22 108q0 66 -60 143h15q8 0 46 -2q19 -1 39 -1t40 1q40 2 49 2h12q-19 -38 -19 -71q0 -41 38 -141z" />
    <glyph glyph-name="X" unicode="X" horiz-adv-x="606" 
d="M311 470l18 -28l29 41q78 107 78 154q0 25 -26 66h11q16 0 46.5 -1.5t35.5 -1.5q19 0 36 1q36 2 42 2h12l-79 -108l-150 -206l178 -278l72 -112h-11q-21 0 -59 1.5t-45 1.5q-1 0 -47 -2q-23 -1 -63 -1h-11q26 44 26 62q0 40 -70 146l-51 78l-52 -71q-73 -100 -73 -151
q0 -23 28 -64h-12q-30 0 -52 1q-8 0 -18.5 0.5t-16 1t-8.5 0.5q-6 0 -35.5 -1.5t-40.5 -1.5h-11q51 74 80 111l175 230l-157 250l-72 113h12q9 0 55 -2q24 -1 46 -1q23 0 48 1q50 2 59 2h10q-26 -41 -26 -66q0 -19 18.5 -53t70.5 -114z" />
    <glyph glyph-name="Y" unicode="Y" horiz-adv-x="549" 
d="M416 484l-73 -131v-135q0 -62 2 -108q5 -70 36 -111h-12q-18 0 -51.5 1.5t-37.5 1.5t-38 -1.5t-53 -1.5h-11q32 41 36 111q2 46 2 108v125l-85 141q-1 2 -29 49q-23 42 -38 65q-22 33 -62 105h13q9 0 45 -2q18 -1 35 -1q24 0 52 1q58 2 64 2h10q-26 -40 -26 -61
q0 -33 64 -133l54 -85l35 60q68 118 68 156q0 26 -26 63h13q13 0 41.5 -1.5t33.5 -1.5q7 0 27 1.5t29 1.5h13q-32 -53 -67 -107q-2 -3 -64 -112z" />
    <glyph glyph-name="Z" unicode="Z" horiz-adv-x="634" 
d="M347 0h-188q-89 0 -157 -3l437 644q-47 6 -132 6h-24q-69 0 -99 -10t-55 -31q-30 -29 -79 -106q-3 32 -3 59q0 58 19 144q39 -3 115 -3h281q117 0 162 3l-421 -642q54 -6 111 -6h67q44 0 82 8q42 9 75 52q23 29 74 119q4 -21 4 -53q0 -80 -22 -184q-110 3 -247 3z" />
    <glyph glyph-name="bracketleft" unicode="[" horiz-adv-x="340" 
d="M295 -165v-58h-202v972h202v-58h-142v-856h142z" />
    <glyph glyph-name="backslash" unicode="\" horiz-adv-x="315" 
d="M309 -79l-58 -18l-246 833l58 18z" />
    <glyph glyph-name="bracketright" unicode="]" horiz-adv-x="340" 
d="M247 749v-972h-202v58h142v856h-142v58h202z" />
    <glyph glyph-name="asciicircum" unicode="^" horiz-adv-x="460" 
d="M101 312h-62l187 420l195 -420h-58l-137 297z" />
    <glyph glyph-name="underscore" unicode="_" horiz-adv-x="500" 
d="M500 -107h-500v55h500v-55z" />
    <glyph glyph-name="grave" unicode="`" 
d="M9 706l133 43l18 -268z" />
    <glyph glyph-name="a" unicode="a" horiz-adv-x="398" 
d="M236 170v29q-28 -11 -46 -20q-66 -35 -66 -79q0 -17 10.5 -27.5t28.5 -10.5q30 0 51.5 29.5t21.5 78.5zM236 253v25q0 40 -21 61q-21 22 -57 22q-63 0 -115 -40q0 57 40 92.5t106 35.5q85 0 128 -54q35 -44 35 -118v-79q0 -47 1 -68q2 -55 8 -77q7 -25 27 -58
q-18 -3 -34 -3q-95 0 -113 78q-38 -86 -124 -86q-47 0 -76 28t-29 71q0 67 68 108q48 30 156 62z" />
    <glyph glyph-name="b" unicode="b" horiz-adv-x="486" 
d="M243 39q50 0 77.5 46t27.5 127q0 69 -26 110t-71 41q-83 0 -83 -129v-97q0 -98 75 -98zM51 24v495q0 57 -3 86q-3 28 -11 43t-28 32q93 33 164 64q-5 -93 -5 -181v-211q50 99 140 99q72 0 119 -62t47 -154q0 -113 -64 -183q-63 -70 -171 -70q-97 0 -188 42z" />
    <glyph glyph-name="c" unicode="c" horiz-adv-x="424" 
d="M234 391q-47 0 -76.5 -40t-29.5 -110t35 -112t95 -42q41 0 74.5 19.5t71.5 62.5q0 -88 -46 -137t-125 -49q-97 0 -161 66q-64 65 -64 158q0 106 69 175q71 69 168 69q92 0 153 -34q5 -35 5 -64q0 -68 -43 -123q-35 87 -63 124t-63 37z" />
    <glyph glyph-name="d" unicode="d" horiz-adv-x="502" 
d="M233 396q-45 0 -73 -40.5t-28 -115.5q0 -82 31.5 -129.5t80.5 -47.5q40 0 62.5 31t22.5 86v91q0 60 -27 92.5t-69 32.5zM329 421v98q0 57 -3 86q-3 28 -11 43t-28 32q93 33 164 64q-5 -93 -5 -181v-356q0 -57 3 -86q3 -28 11 -43t28 -32l-152 -57l-3 85
q-20 -42 -55.5 -66.5t-76.5 -24.5q-80 0 -135 61q-54 62 -54 166q0 107 62 174q63 67 152 67q58 0 103 -30z" />
    <glyph glyph-name="e" unicode="e" horiz-adv-x="447" 
d="M14 208q0 105 65 175q66 69 161 69q85 0 137 -49t52 -126q0 -13 -2 -29h-297q-1 -4 -1 -14q0 -65 34.5 -105.5t91.5 -40.5q83 0 159 87q2 -16 2 -24q0 -69 -51 -119q-51 -48 -125 -48q-98 0 -162 66q-64 65 -64 158zM136 300h171q-3 94 -75 94q-34 0 -60.5 -26t-35.5 -68
z" />
    <glyph glyph-name="f" unicode="f" horiz-adv-x="264" 
d="M383 723q10 -30 10 -68q0 -51 -37 -112q-34 75 -59 108t-49 33q-74 0 -74 -170v-80q37 1 116 4l-30 -66h-86v-190q0 -40 4 -93q5 -47 37 -90h-10q-29 0 -49 1q-40 2 -42 2q-7 0 -37.5 -1.5t-43.5 -1.5h-11q32 45 33 90q2 80 2 93v147q0 30 -7.5 46.5t-30.5 33.5l7 7
q19 19 28 53q2 8 7 37.5t7 37.5q21 97 73 148t130 51q70 0 112 -20z" />
    <glyph glyph-name="g" unicode="g" horiz-adv-x="450" 
d="M476 437l-25 -75l-77 28q42 -40 42 -102q0 -74 -53 -124q-53 -48 -128 -48q-73 0 -119 39q-23 -21 -23 -49q0 -42 67 -45l109 -5q80 -4 122 -42.5t42 -100.5q0 -76 -67 -131q-66 -57 -168 -57q-94 0 -144.5 35t-50.5 93q0 63 74 116q-65 33 -65 103q0 64 69 113
q-31 46 -31 93q0 70 53 120t126 50q20 0 66 -7.5t64 -7.5q76 0 117 4zM358 -118q0 54 -95 57q-115 5 -151 11q-14 -26 -14 -51q0 -40 39.5 -65t109.5 -25q53 0 82 21t29 52zM230 398q-28 0 -44 -28.5t-16 -82.5q0 -121 61 -121q60 0 60 110q0 57 -16.5 89.5t-44.5 32.5z" />
    <glyph glyph-name="h" unicode="h" horiz-adv-x="493" 
d="M175 563v-201q27 46 57 67.5t73 21.5q75 0 112 -60q23 -38 23 -97v-112q0 -13 2 -93q2 -50 34 -90h-11q-13 0 -42 1.5t-36 1.5t-35.5 -1.5t-40.5 -1.5h-13q21 34 23 90q2 80 2 93v109q0 34 -17 53t-48 19q-38 0 -60.5 -24t-22.5 -63v-94q0 -13 2 -93q1 -53 24 -90h-13
q-12 0 -39 1.5t-34 1.5t-37.5 -1.5t-42.5 -1.5h-12q31 39 33 90q2 80 2 93v337q0 57 -3 86q-3 28 -11 43t-28 32q93 33 164 64q-5 -93 -5 -181z" />
    <glyph glyph-name="i" unicode="i" horiz-adv-x="232" 
d="M178 263v-81q0 -13 2 -93q2 -53 24 -90h-13q-12 0 -39 1.5t-34 1.5t-37.5 -1.5t-42.5 -1.5h-12q32 39 33 90q2 80 2 93v37q0 57 -3 86q-3 28 -11 43t-28 32q93 33 164 64q-5 -93 -5 -181zM218 659l-98 -97l-97 97l97 98z" />
    <glyph glyph-name="j" unicode="j" horiz-adv-x="209" 
d="M172 263v-130q0 -76 3 -142q-4 -98 -57 -169q-50 -69 -127 -86q33 58 49 111q15 49 15 122v250q0 57 -3 86q-3 28 -11 43t-28 32q93 33 164 64q-5 -93 -5 -181zM211 659l-98 -97l-97 97l97 98z" />
    <glyph glyph-name="k" unicode="k" horiz-adv-x="459" 
d="M278 72l-94 166l49 48q34 34 45.5 53.5t11.5 39.5q0 16 -23 54h12q8 0 35.5 -1.5t36.5 -1.5q22 0 41 1q38 2 43 2h13l-92 -94l-59 -59l118 -197q36 -60 56 -85q-20 -7 -37 -7q-110 0 -156 81zM175 563v-381q0 -13 2 -93q1 -53 24 -90h-13q-12 0 -39 1.5t-34 1.5
t-37.5 -1.5t-42.5 -1.5h-12q31 39 33 90q2 80 2 93v337q0 57 -3 86q-3 28 -11 43t-28 32q93 33 164 64q-5 -93 -5 -181z" />
    <glyph glyph-name="l" unicode="l" horiz-adv-x="224" 
d="M175 563v-381q0 -13 2 -93q1 -53 24 -90h-13q-12 0 -39 1.5t-34 1.5t-37.5 -1.5t-42.5 -1.5h-12q31 39 33 90q2 80 2 93v337q0 57 -3 86q-3 28 -11 43t-28 32q93 33 164 64q-5 -93 -5 -181z" />
    <glyph glyph-name="m" unicode="m" horiz-adv-x="737" 
d="M183 444q-5 -33 -7 -82q49 89 126 89q71 0 107 -60q9 -14 14 -33q28 49 59 71t73 22q71 0 107 -60q22 -37 22 -97v-112q0 -13 2 -93q2 -53 24 -90h-13q-12 0 -39 1.5t-34 1.5t-37.5 -1.5t-42.5 -1.5h-12q32 39 33 90q2 80 2 93v109q0 34 -15.5 53t-44.5 19
q-35 0 -55.5 -24t-20.5 -63v-94q0 -13 2 -93q1 -53 24 -90h-13q-12 0 -39 1.5t-34 1.5t-37.5 -1.5t-42.5 -1.5h-12q31 39 33 90q2 80 2 93v109q0 34 -15.5 53t-44.5 19q-35 0 -55.5 -24t-20.5 -63v-94q0 -13 2 -93q2 -53 24 -90h-13q-12 0 -39 1.5t-34 1.5t-37.5 -1.5
t-42.5 -1.5h-12q32 39 33 90q2 80 2 93v37q0 57 -3 86q-4 53 -39 75q83 28 164 64z" />
    <glyph glyph-name="n" unicode="n" horiz-adv-x="496" 
d="M178 276v-94q0 -13 2 -93q2 -53 24 -90h-13q-12 0 -39 1.5t-34 1.5t-37.5 -1.5t-42.5 -1.5h-12q32 39 33 90q2 80 2 93v37q0 57 -3 86q-4 53 -39 75q83 28 164 64q-7 -45 -7 -85q29 48 59 70t73 22q74 0 112 -60q23 -38 23 -97v-112q0 -13 2 -93q2 -50 34 -90h-11
q-13 0 -42 1.5t-36 1.5t-35.5 -1.5t-40.5 -1.5h-13q21 34 23 90q2 80 2 93v109q0 34 -17 53t-48 19q-38 0 -60.5 -24t-22.5 -63z" />
    <glyph glyph-name="o" unicode="o" horiz-adv-x="505" 
d="M249 393q-50 0 -79.5 -44t-29.5 -124q0 -87 31.5 -135.5t86.5 -48.5q49 0 77.5 44.5t28.5 124.5q0 83 -34 132q-33 51 -81 51zM12 217q0 97 69 165q69 69 171 69q106 0 173 -67q68 -68 68 -167q0 -98 -68 -166t-168 -68q-109 0 -177 67q-68 68 -68 167z" />
    <glyph glyph-name="p" unicode="p" horiz-adv-x="500" 
d="M273 41q41 0 67 40.5t26 112.5q0 82 -29.5 128.5t-78.5 46.5q-40 0 -63.5 -30.5t-23.5 -84.5v-86q0 -62 27.5 -94.5t74.5 -32.5zM171 15v-96q0 -6 2 -50q0 -9 0.5 -19.5t1 -15.5t0.5 -8q2 -47 37 -90h-13q-7 0 -47 2q-19 1 -41 1q-7 0 -37.5 -1.5t-42.5 -1.5h-12
q31 39 33 90q2 80 2 93v300q0 57 -3 86q-5 53 -39 75q83 28 164 64q-7 -50 -7 -83q45 90 134 90q78 0 131 -62q54 -61 54 -165q0 -108 -61 -175q-61 -66 -149 -66q-63 0 -107 32z" />
    <glyph glyph-name="q" unicode="q" horiz-adv-x="478" 
d="M244 391q-48 0 -76.5 -47.5t-28.5 -130.5q0 -64 26.5 -104t70.5 -40q83 0 83 130v94q0 98 -75 98zM248 451q72 0 125 -27q10 4 65 32q-2 -102 -2 -232v-305q0 -13 2 -93q2 -45 33 -90h-9q-14 0 -45 1.5t-38 1.5q-22 0 -42 -1q-40 -2 -50 -2h-9q32 43 37 90q4 53 4 93v163
q-54 -100 -140 -100q-73 0 -119 61t-46 158q0 108 65 179q66 71 169 71z" />
    <glyph glyph-name="r" unicode="r" horiz-adv-x="348" 
d="M178 218v-36q0 -13 2 -93q2 -53 24 -90h-13q-12 0 -39 1.5t-34 1.5t-37.5 -1.5t-42.5 -1.5h-12q32 39 33 90q2 80 2 93v37q0 57 -3 86q-4 53 -39 75q83 28 164 64q-7 -45 -7 -105q42 112 114 112q33 0 58 -11q5 -25 5 -59q0 -69 -36 -115q-18 37 -40.5 57.5t-44.5 20.5
q-13 2 -24.5 -9t-20.5 -41t-9 -76z" />
    <glyph glyph-name="s" unicode="s" horiz-adv-x="335" 
d="M167 36q24 0 37.5 13.5t13.5 34.5q0 24 -17.5 43t-62.5 44q-63 35 -90.5 68.5t-27.5 75.5q0 57 44 96q45 39 107 39q71 0 126 -24q8 -34 8 -58q0 -54 -27 -97q-55 127 -113 127q-21 0 -33.5 -13t-12.5 -33q0 -23 20 -43.5t74 -51.5q60 -35 84.5 -67t24.5 -72
q0 -62 -46 -98.5t-119 -36.5q-74 0 -134 23q-8 43 -8 63q0 59 24 105q34 -73 62.5 -105.5t65.5 -32.5z" />
    <glyph glyph-name="t" unicode="t" horiz-adv-x="268" 
d="M39 155v174q0 30 -7 47.5t-27 32.5q88 65 160 130q-7 -53 -8 -105q7 0 111 4l-28 -66h-84v-218q0 -48 15 -64q11 -14 37 -14q30 0 57 30q0 -2 0.5 -7.5t0.5 -6.5q0 -49 -29 -78t-80 -29q-56 0 -87 40q-31 37 -31 130z" />
    <glyph glyph-name="u" unicode="u" horiz-adv-x="486" 
d="M430 257v-50q0 -57 3 -86q5 -47 39 -75l-153 -57l-3 87q-31 -50 -59.5 -72t-71.5 -22q-73 0 -110 60q-23 38 -23 97v100q0 63 -3 95q-3 44 -35 98q111 2 162 5q-7 -111 -7 -180v-115q0 -72 63 -72q38 0 59.5 23.5t21.5 63.5v82q0 63 -3 95q-3 44 -35 98q111 2 162 5
q-7 -111 -7 -180z" />
    <glyph glyph-name="v" unicode="v" horiz-adv-x="446" 
d="M204 253l44 -93l47 97q27 55 27 104q0 29 -22 72h12q9 0 35.5 -1.5t31.5 -1.5t26 1.5t31 1.5h15q-34 -48 -56 -93l-20 -43q-5 -11 -12.5 -26.5t-9.5 -19.5l-137 -279l-135 279l-20 45q-18 42 -25 56l-41 81h13q2 0 44 -2q21 -1 45 -1q10 0 39 1.5t37 1.5h13
q-18 -43 -18 -63q0 -40 36 -117z" />
    <glyph glyph-name="w" unicode="w" horiz-adv-x="700" 
d="M465 253l43 -98l44 102q24 55 24 97q0 36 -22 79h13q9 0 31 -1.5t27 -1.5t31 1.5t36 1.5h13q-32 -45 -55 -93l-24 -51l-17 -38l-133 -281l-131 274l-134 -274l-132 281q-3 6 -22 49l-22 52q-26 55 -40 81h15q3 0 43 -2q20 -1 44 -1q10 0 37.5 1.5t35.5 1.5h16
q-20 -43 -20 -63q0 -42 33 -115l45 -100l46 102q20 45 20 91q0 50 -20 85h11q6 0 32 -1.5t37 -1.5q10 0 35 1.5t33 1.5h12q-18 -39 -18 -67q0 -36 33 -113z" />
    <glyph glyph-name="x" unicode="x" horiz-adv-x="455" 
d="M198 387q0 -32 55 -105q35 39 45 61q19 42 -4 90h9q10 0 36 -1.5t32 -1.5q5 0 29 1.5t36 1.5h11q-46 -60 -71 -91l-87 -106l111 -156l60 -81h-13q-27 0 -51 1q-46 2 -49 2q-5 0 -45 -2q-20 -1 -45 -1h-9q17 28 17 53q0 20 -12 42q-14 26 -49 71l-10 -12q-53 -64 -53 -101
q0 -22 12 -53h-9q-10 0 -33 1.5t-29 1.5q-5 0 -33.5 -1.5t-40.5 -1.5h-13l75 93l98 120l-103 140q-9 12 -30 42.5t-27 38.5h13q4 0 48 -2q22 -1 47 -1q10 0 42 1.5t41 1.5h11q-12 -25 -12 -46z" />
    <glyph glyph-name="y" unicode="y" horiz-adv-x="456" 
d="M170 -100l32 75l-116 276q-2 5 -18.5 45t-24.5 56q-5 10 -18 39t-21 42h12q2 0 44 -2q21 -1 46 -1q10 0 39 1.5t37 1.5h13q-19 -42 -19 -66q0 -30 32 -114l53 -135l53 139q22 58 22 97t-21 79h12q9 0 31.5 -1.5t27.5 -1.5t28 1.5t32 1.5h15q-20 -33 -50 -93
q-21 -44 -39 -89l-149 -373q-30 -75 -65 -107.5t-84 -32.5q-33 0 -72 17q-7 24 -7 56q0 36 18 78q44 -43 96 -43q39 0 61 54z" />
    <glyph glyph-name="z" unicode="z" horiz-adv-x="400" 
d="M147 431h86q74 0 170 3l-77 -124l-164 -258q71 0 96 4q36 4 60 36q28 36 63 111q8 -40 8 -92q0 -55 -11 -116q-31 1 -65.5 2.5t-49 2t-18.5 0.5h-110q-38 0 -144 -2l89 135l159 245h-16q-72 0 -103 -10q-46 -15 -88 -109q-11 52 -11 89q0 43 13 88q55 -5 113 -5z" />
    <glyph glyph-name="braceleft" unicode="{" horiz-adv-x="340" 
d="M40 239v50q50 4 70.5 25t20.5 66q0 32 -9 100t-9 110q0 75 49 117.5t130 42.5v-58q-116 -5 -116 -102q0 -36 9 -103q9 -66 9 -110q0 -46 -15.5 -72.5t-52.5 -40.5q37 -14 52.5 -40.5t15.5 -72.5q0 -43 -9 -111q-9 -66 -9 -102q0 -97 116 -102v-58q-81 0 -130 42.5
t-49 117.5q0 42 9 110t9 100q0 45 -20.5 66t-70.5 25z" />
    <glyph glyph-name="bar" unicode="|" 
d="M77 -261v1013h56v-1013h-56z" />
    <glyph glyph-name="braceright" unicode="}" horiz-adv-x="340" 
d="M300 289v-50q-50 -4 -70.5 -25t-20.5 -66q0 -32 9 -100t9 -110q0 -75 -49 -117.5t-130 -42.5v58q116 5 116 102q0 36 -9 102q-9 68 -9 111q0 46 15.5 72.5t52.5 40.5q-37 14 -52.5 40.5t-15.5 72.5q0 44 9 110q9 67 9 103q0 97 -116 102v58q81 0 130 -42.5t49 -117.5
q0 -42 -9 -110t-9 -100q0 -45 20.5 -66t70.5 -25z" />
    <glyph glyph-name="asciitilde" unicode="~" horiz-adv-x="460" 
d="M136 292q38 0 105 -32q57 -28 77 -28q27 0 45 13.5t37 46.5l40 -25q-40 -91 -116 -91q-38 0 -105 32q-57 28 -77 28q-27 0 -45 -13.5t-37 -46.5l-40 25q40 91 116 91z" />
    <glyph glyph-name="uni00A0" unicode="&#xa0;" 
 />
    <glyph glyph-name="exclamdown" unicode="&#xa1;" 
d="M13 0l93 529l93 -529h-186zM106 529l-99 98l99 99l97 -99z" />
    <glyph glyph-name="cent" unicode="&#xa2;" horiz-adv-x="426" 
d="M172 -197l-60 11l36 186q-63 25 -100.5 81.5t-37.5 125.5q0 99 62 167q62 69 152 76l37 186l60 -11l-35 -176q64 -5 114 -32q5 -35 5 -64q0 -68 -43 -123q-35 87 -63 124t-63 37q-47 0 -76.5 -40t-29.5 -110t35 -112t95 -42q41 0 74.5 19.5t71.5 62.5q0 -88 -46 -137
t-125 -49q-3 0 -27 2z" />
    <glyph glyph-name="sterling" unicode="&#xa3;" horiz-adv-x="567" 
d="M48 325v55h70q-25 66 -25 131q0 86 56 145q55 60 152 60q88 0 163 -34q11 -46 11 -82q0 -55 -37 -122q-21 43 -34 65q-13 25 -34 54q-42 59 -93 59q-36 0 -56 -30t-20 -86q0 -22 6 -49q10 -35 14 -46l25 -65h178v-55h-158q14 -54 14 -81q0 -81 -98 -143q51 20 76 20
q36 0 105 -33q72 -32 89 -32q26 0 26 25q0 18 -15 35t-64 58l74 80q32 -19 53 -52t21 -71q0 -57 -27 -95q-39 -54 -123 -54q-54 0 -130.5 33t-92.5 33q-19 0 -44 -12q-18 -8 -25 -12q-11 -5 -69 -37q-32 17 -32 68q0 14 1 18q93 13 133 42t40 85q0 35 -37 125h-93z" />
    <glyph glyph-name="yen" unicode="&#xa5;" horiz-adv-x="549" 
d="M216 322h-164v55h143l-64 107q-1 2 -29 49q-23 42 -38 65q-22 33 -62 105h13q9 0 45 -2q18 -1 35 -1q24 0 52 1q58 2 64 2h10q-26 -40 -26 -61q0 -33 64 -133l54 -85l35 60q68 118 68 156q0 26 -26 63h13q13 0 41.5 -1.5t33.5 -1.5q7 0 27 1.5t29 1.5h13
q-32 -53 -67 -107q-2 -3 -64 -112l-60 -107h144v-55h-157v-85h157v-55h-157q0 -42 2 -72q5 -70 36 -111h-12q-18 0 -51.5 1.5t-37.5 1.5t-38 -1.5t-53 -1.5h-11q32 41 36 111q2 62 2 72h-164v55h164v85z" />
    <glyph glyph-name="brokenbar" unicode="&#xa6;" 
d="M77 398v354h56v-354h-56zM133 92v-353h-56v353h56z" />
    <glyph glyph-name="section" unicode="&#xa7;" horiz-adv-x="460" 
d="M32 230q0 50 30.5 89t82.5 62q-50 38 -73 68q-35 44 -35 98q0 73 54 121q55 48 147 48t185 -45q3 -35 3 -75q0 -70 -15 -124q-51 100 -80 137q-40 49 -92 49q-43 0 -66.5 -22t-23.5 -57q0 -36 39 -72q6 -6 86 -69q95 -76 112 -95q51 -55 51 -129q0 -94 -104 -145
q25 -20 49 -45q49 -52 49 -130q0 -70 -59 -120t-148 -50q-101 0 -185 34q-20 100 -20 198q0 2 0.5 12.5t0.5 14.5q34 -62 86 -132q50 -66 127 -66q42 0 66 19.5t24 52.5q0 39 -27 71q-29 32 -102 89q-94 73 -124 112q-38 49 -38 101zM189 347q-49 -31 -49 -82q0 -41 46 -80
q54 -48 101 -82q38 35 38 81q0 41 -30 75.5t-106 87.5z" />
    <glyph glyph-name="dieresis" unicode="&#xa8;" 
d="M101 651l-82 -82l-82 82l82 82zM272 651l-80 -82l-82 82l82 82z" />
    <glyph glyph-name="copyright" unicode="&#xa9;" horiz-adv-x="802" 
d="M418 173q36 0 57.5 11t42.5 38q5 7 23 38l27 47q2 -38 2 -46q0 -63 -7 -101q-58 -31 -150 -31q-100 0 -171 58q-71 59 -71 163q0 98 70 159q71 62 176 62q77 0 145 -28q1 -8 1 -39q0 -56 -11 -92q-27 56 -52 84q-28 31 -84 31q-69 0 -111.5 -47.5t-42.5 -127.5
q0 -82 44 -130.5t112 -48.5zM32 351q0 157 106 260q106 105 261 105q160 0 265 -105q106 -105 106 -260t-106 -261q-105 -106 -256 -106q-164 0 -271 104q-105 104 -105 263zM106 351q0 -132 85 -216t218 -84q119 0 203 87q85 86 85 213q0 123 -87 210q-87 88 -211 88
q-121 0 -207 -84q-86 -83 -86 -214z" />
    <glyph glyph-name="ordfeminine" unicode="&#xaa;" horiz-adv-x="282" 
d="M159 428v16q0 25 -13 38q-14 15 -36 15q-40 0 -90 -36q0 49 31 76.5t80 27.5q62 0 94 -38q24 -30 24 -84v-54q0 -49 1 -64q1 -48 26 -80q-15 -3 -30 -3q-61 0 -79 44q-31 -49 -85 -49q-35 0 -57 20.5t-22 50.5q0 49 50 79q29 18 106 41zM159 369v14q-3 -1 -25 -11
q-43 -22 -43 -52q0 -24 22 -24q19 0 32.5 20.5t13.5 52.5z" />
    <glyph glyph-name="guillemotleft" unicode="&#xab;" horiz-adv-x="436" 
d="M260 22l-255 212l255 212l-100 -212zM436 22l-255 212l255 212l-100 -212z" />
    <glyph glyph-name="logicalnot" unicode="&#xac;" horiz-adv-x="460" 
d="M30 337h400v-200h-55v145h-345v55z" />
    <glyph glyph-name="registered" unicode="&#xae;" horiz-adv-x="802" 
d="M367 385q80 0 80 76q0 35 -19 56t-47 21q-16 0 -22.5 -5.5t-8.5 -20.5q-1 -11 -1 -62v-64q3 -1 18 -1zM350 221q3 -38 28 -69q-40 2 -72 2q-23 0 -61 -2q18 27 21 69q2 54 2 64v158q0 9 -2 65q-3 40 -21 68q19 -1 63 -1q19 0 41 0.5t36.5 0.5h15.5q62 0 97 -32.5
t35 -82.5q0 -73 -71 -105q36 -64 96 -147q30 -39 52 -58q-18 -8 -40 -8q-64 0 -110 63q-38 51 -78 138q-26 0 -33 1v-60q0 -51 1 -64zM32 351q0 157 106 260q106 105 261 105q160 0 265 -105q106 -105 106 -260t-106 -261q-105 -106 -256 -106q-164 0 -271 104
q-105 104 -105 263zM106 351q0 -132 85 -216t218 -84q119 0 203 87q85 86 85 213q0 123 -87 210q-87 88 -211 88q-121 0 -207 -84q-86 -83 -86 -214z" />
    <glyph glyph-name="overscore" unicode="&#xaf;" 
d="M246 606h-283v76h283v-76z" />
    <glyph glyph-name="degree" unicode="&#xb0;" horiz-adv-x="320" 
d="M16 572q0 62 41 103q42 42 103 42q62 0 102 -42q42 -42 42 -103q0 -62 -42 -102q-41 -41 -102 -41q-62 0 -103 41t-41 102zM158 492q33 0 56 22.5t23 56.5t-23 58t-56 24q-32 0 -54 -24t-22 -58t22 -56.5t54 -22.5z" />
    <glyph glyph-name="plusminus" unicode="&#xb1;" horiz-adv-x="460" 
d="M30 102v55h173v121h-173v55h173v101h55v-101h172v-55h-172v-121h172v-55h-400z" />
    <glyph glyph-name="twosuperior" unicode="&#xb2;" horiz-adv-x="303" 
d="M139 596q64 0 96 -38q27 -32 27 -75q0 -45 -30 -82t-102 -82h76q43 0 98 31q-8 -42 -44 -104q-38 2 -77 2h-74q-83 0 -113 -3l29 30q90 94 110 122q27 35 27 69q0 24 -15.5 40.5t-39.5 16.5q-33 0 -75 -47l-2 22q0 47 34 72q35 26 75 26z" />
    <glyph glyph-name="threesuperior" unicode="&#xb3;" horiz-adv-x="271" 
d="M126 596q50 0 81 -28q30 -28 30 -69q0 -56 -73 -92q90 -29 90 -113q0 -65 -56 -115q-56 -48 -163 -48q-16 0 -47 4q173 50 173 139q0 32 -35 56t-91 34l16 10q95 59 95 105q0 43 -47 43q-42 0 -86 -47q-1 5 -1 19q0 46 32.5 74t81.5 28z" />
    <glyph glyph-name="acute" unicode="&#xb4;" 
d="M204 706l-151 -225l19 268z" />
    <glyph glyph-name="mu" unicode="&#xb5;" horiz-adv-x="486" 
d="M52 -265v504q0 63 -3 95q-3 44 -35 98q111 2 162 5q-7 -111 -7 -180v-115q0 -72 63 -72q38 0 59.5 23.5t21.5 63.5v82q0 63 -3 95q-3 44 -35 98q111 2 162 5q-7 -111 -7 -180v-50q0 -57 3 -86q5 -47 39 -75l-153 -57l-3 87q-31 -50 -59.5 -72t-71.5 -22q-29 0 -56 11
l8 -36q13 -60 23 -98l24 -96q-36 -7 -132 -28z" />
    <glyph glyph-name="paragraph" unicode="&#xb6;" horiz-adv-x="460" 
d="M425 703h11q-31 -25 -43 -49.5t-14 -62.5q-2 -44 -2 -112v-411q0 -162 -57.5 -246t-163.5 -84q-35 0 -80 12q-7 27 -7 58q0 49 16 77q61 -72 113 -72q29 0 42 24t13 88v338q-97 1 -168 57q-69 56 -69 162q0 110 74 164t187 54q39 0 71 1q64 2 77 2z" />
    <glyph glyph-name="middot" unicode="&#xb7;" 
d="M203 246l-97 -99l-99 99l99 98z" />
    <glyph glyph-name="cedilla" unicode="&#xb8;" 
d="M94 -234q-38 0 -71 14q-2 12 -2 22q0 35 16 63q39 -59 75 -59q30 0 30 31q0 21 -18 38t-66 38l51 103h35l-20 -57q71 -33 71 -99q0 -42 -26 -68t-75 -26z" />
    <glyph glyph-name="onesuperior" unicode="&#xb9;" 
d="M59 394v43q0 50 -1 66q-3 43 -29 81q36 -3 76 -3q41 0 76 3q-23 -32 -28 -81q-1 -13 -1 -66v-43q0 -50 1 -66q3 -49 28 -81q-30 2 -76 2q-44 0 -76 -2q26 35 29 81q1 13 1 66z" />
    <glyph glyph-name="ordmasculine" unicode="&#xba;" horiz-adv-x="352" 
d="M3 402q0 68 50 116q49 49 122 49q75 0 124 -47q49 -46 49 -118q0 -70 -49 -118q-48 -48 -120 -48q-77 0 -127 47q-49 46 -49 119zM103 408q0 -60 20.5 -93t56.5 -33q31 0 49.5 30t18.5 85q0 54 -22 89.5t-53 35.5t-50.5 -30t-19.5 -84z" />
    <glyph glyph-name="guillemotright" unicode="&#xbb;" horiz-adv-x="436" 
d="M100 234l-100 212l255 -212l-255 -212zM276 234l-100 212l255 -212l-255 -212z" />
    <glyph glyph-name="onequarter" unicode="&#xbc;" horiz-adv-x="710" 
d="M59 484v43q0 50 -1 66q-3 43 -29 81q36 -3 76 -3q41 0 76 3q-23 -32 -28 -81q-1 -13 -1 -66v-43q0 -50 1 -66q3 -49 28 -81q-30 2 -76 2q-44 0 -76 -2q26 35 29 81q1 13 1 66zM502 710l46 -32l-466 -734l-46 32zM709 100q-5 -55 -36 -104q-38 2 -69 2q0 -64 1 -79l3 -65
l-92 -16v160h-61q-45 0 -143 -2q159 219 295 359q-3 -78 -3 -123v-162h16q42 0 89 30zM426 70h90v120q-52 -68 -90 -120z" />
    <glyph glyph-name="onehalf" unicode="&#xbd;" horiz-adv-x="681" 
d="M59 484v43q0 50 -1 66q-3 43 -29 81q36 -3 76 -3q41 0 76 3q-23 -32 -28 -81q-1 -13 -1 -66v-43q0 -50 1 -66q3 -49 28 -81q-30 2 -76 2q-44 0 -76 -2q26 35 29 81q1 13 1 66zM502 710l46 -32l-466 -734l-46 32zM517 346q64 0 96 -38q27 -32 27 -75q0 -45 -30 -82
t-102 -82h76q43 0 98 31q-8 -42 -44 -104q-38 2 -77 2h-74q-83 0 -113 -3l29 30q90 94 110 122q27 35 27 69q0 24 -15.5 40.5t-39.5 16.5q-33 0 -75 -47l-2 22q0 47 34 72q35 26 75 26z" />
    <glyph glyph-name="threequarters" unicode="&#xbe;" horiz-adv-x="801" 
d="M126 686q50 0 81 -28q30 -28 30 -69q0 -56 -73 -92q90 -29 90 -113q0 -65 -56 -115q-56 -48 -163 -48q-16 0 -47 4q173 50 173 139q0 32 -35 56t-91 34l16 10q95 59 95 105q0 43 -47 43q-42 0 -86 -47q-1 5 -1 19q0 46 32.5 74t81.5 28zM800 100q-5 -55 -36 -104
q-38 2 -69 2q0 -64 1 -79l3 -65l-92 -16v160h-61q-45 0 -143 -2q159 219 295 359q-3 -78 -3 -123v-162h16q43 0 89 30zM517 70h90v120q-53 -68 -90 -120zM593 710l46 -32l-466 -734l-46 32z" />
    <glyph glyph-name="questiondown" unicode="&#xbf;" horiz-adv-x="304" 
d="M278 128v-131q-27 -8 -68 -8q-94 0 -157 74q-63 75 -63 177q0 76 43.5 120t122.5 50l41 116l55 -225q-94 -2 -138 -10t-57 -23t-14 -48q0 -50 35 -82t92 -32t108 22zM100 626l97 99l99 -99l-99 -98z" />
    <glyph glyph-name="Agrave" unicode="&#xc0;" horiz-adv-x="595" 
d="M72 167l20 52l200 520l206 -521l19 -51l23 -56q29 -69 53 -112h-13q-18 0 -50.5 1.5t-36.5 1.5q-10 0 -43 -1.5t-48 -1.5h-13q19 37 19 65q0 31 -43 147h-207q-34 -101 -34 -139q0 -26 29 -73h-12q-13 0 -36.5 1.5t-28.5 1.5q-7 0 -31.5 -1.5t-33.5 -1.5h-10
q17 32 50 113q9 21 21 55zM343 272l-83 215l-80 -215h163zM129 789l66 121l199 -175z" />
    <glyph glyph-name="Aacute" unicode="&#xc1;" horiz-adv-x="595" 
d="M72 167l20 52l200 520l206 -521l19 -51l23 -56q29 -69 53 -112h-13q-18 0 -50.5 1.5t-36.5 1.5q-10 0 -43 -1.5t-48 -1.5h-13q19 37 19 65q0 31 -43 147h-207q-34 -101 -34 -139q0 -26 29 -73h-12q-13 0 -36.5 1.5t-28.5 1.5q-7 0 -31.5 -1.5t-33.5 -1.5h-10
q17 32 50 113q9 21 21 55zM343 272l-83 215l-80 -215h163zM454 789l-265 -54l198 175z" />
    <glyph glyph-name="Acircumflex" unicode="&#xc2;" horiz-adv-x="595" 
d="M72 167l20 52l200 520l206 -521l19 -51l23 -56q29 -69 53 -112h-13q-18 0 -50.5 1.5t-36.5 1.5q-10 0 -43 -1.5t-48 -1.5h-13q19 37 19 65q0 31 -43 147h-207q-34 -101 -34 -139q0 -26 29 -73h-12q-13 0 -36.5 1.5t-28.5 1.5q-7 0 -31.5 -1.5t-33.5 -1.5h-10
q17 32 50 113q9 21 21 55zM343 272l-83 215l-80 -215h163zM118 736l173 168l173 -168l-173 44z" />
    <glyph glyph-name="Atilde" unicode="&#xc3;" horiz-adv-x="595" 
d="M72 167l20 52l200 520l206 -521l19 -51l23 -56q29 -69 53 -112h-13q-18 0 -50.5 1.5t-36.5 1.5q-10 0 -43 -1.5t-48 -1.5h-13q19 37 19 65q0 31 -43 147h-207q-34 -101 -34 -139q0 -26 29 -73h-12q-13 0 -36.5 1.5t-28.5 1.5q-7 0 -31.5 -1.5t-33.5 -1.5h-10
q17 32 50 113q9 21 21 55zM343 272l-83 215l-80 -215h163zM278 764q-44 23 -66 23q-39 0 -79 -29v8q0 50 29 80t70 30q31 0 66 -19q44 -23 66 -23q39 0 79 29v-8q0 -50 -29 -80t-70 -30q-31 0 -66 19z" />
    <glyph glyph-name="Adieresis" unicode="&#xc4;" horiz-adv-x="595" 
d="M72 167l20 52l200 520l206 -521l19 -51l23 -56q29 -69 53 -112h-13q-18 0 -50.5 1.5t-36.5 1.5q-10 0 -43 -1.5t-48 -1.5h-13q19 37 19 65q0 31 -43 147h-207q-34 -101 -34 -139q0 -26 29 -73h-12q-13 0 -36.5 1.5t-28.5 1.5q-7 0 -31.5 -1.5t-33.5 -1.5h-10
q17 32 50 113q9 21 21 55zM343 272l-83 215l-80 -215h163zM288 811l-82 -82l-82 82l82 82zM459 811l-80 -82l-82 82l82 82z" />
    </font>
</defs>
</svg>
